<?xml version="1.0" standalone="no"?>
<!DOCTYPE svg PUBLIC "-//W3C//DTD SVG 1.1//EN" "http://www.w3.org/Graphics/SVG/1.1/DTD/svg11.dtd" >
<svg xmlns="http://www.w3.org/2000/svg" xmlns:xlink="http://www.w3.org/1999/xlink" version="1.1">
<metadata></metadata>
<defs>
<font id="e-ukraineregular" horiz-adv-x="1440" >
<font-face units-per-em="2048" ascent="1638" descent="-410" />
<missing-glyph horiz-adv-x="640" />
<glyph unicode="&#x3c;&#x433;&#x440;&#x43d;&#x3e;" d="M112 524v152h356l208 168h-564v152h724q88 82 88 168q0 75 -62.5 121.5t-161.5 46.5q-86 0 -162.5 -48.5t-133.5 -139.5l-184 124q84 131 210.5 201.5t277.5 70.5q206 0 329 -95t123 -249q0 -105 -68 -200h232v-152h-372l-208 -168h580v-152h-732q-88 -69 -88 -160 q0 -84 61.5 -128t178.5 -44q199 0 328 188l184 -120q-90 -136 -230.5 -208t-293.5 -72q-206 0 -335 93t-129 247q0 112 80 204h-236z" />
<glyph horiz-adv-x="0" />
<glyph horiz-adv-x="682" />
<glyph unicode="&#xd;" horiz-adv-x="640" />
<glyph unicode=" "  horiz-adv-x="640" />
<glyph unicode="&#x09;" horiz-adv-x="640" />
<glyph unicode="&#xa0;" horiz-adv-x="640" />
<glyph unicode="!" horiz-adv-x="720" d="M204 0v312h312v-312h-312zM220 1520h280l-44 -1016h-192z" />
<glyph unicode="&#x22;" horiz-adv-x="900" d="M108 1520h252l-28 -544h-200zM540 1520h252l-28 -544h-200z" />
<glyph unicode="#" d="M96 364v232h248v328h-248v232h248v364h208v-364h336v364h208v-364h248v-232h-248v-328h248v-232h-248v-364h-208v364h-336v-364h-208v364h-248zM552 596h336v328h-336v-328z" />
<glyph unicode="$" horiz-adv-x="1412" d="M88 200l148 184q158 -152 388 -184v472q-90 27 -153 51t-130 62t-108 80.5t-67 104.5t-26 138q0 179 130.5 293t353.5 135v144h156v-144q263 -11 476 -176l-140 -188q-143 125 -336 148v-452q134 -34 226 -72t158 -89.5t97 -118t31 -152.5q0 -189 -137.5 -310 t-374.5 -142v-160h-156v156q-336 26 -536 220zM380 1120q0 -74 56.5 -121t187.5 -87v408q-116 -12 -180 -65t-64 -135zM780 200q126 12 195 67t69 145q0 76 -57 124t-207 92v-428z" />
<glyph unicode="%" horiz-adv-x="2152" d="M112 1080q0 210 111 335t297 125t297 -125t111 -335t-111 -335t-297 -125t-297 125t-111 335zM304 1080q0 -132 58.5 -212t157.5 -80t157.5 80t58.5 212t-58.5 212t-157.5 80t-157.5 -80t-58.5 -212zM500 0l964 1520h188l-964 -1520h-188zM1224 440q0 210 111 335 t297 125t297 -125t111 -335t-111 -335t-297 -125t-297 125t-111 335zM1416 440q0 -132 58.5 -212t157.5 -80t157.5 80t58.5 212t-58.5 212t-157.5 80t-157.5 -80t-58.5 -212z" />
<glyph unicode="&#x26;" horiz-adv-x="1928" d="M96 404q0 152 89.5 255t282.5 165q-88 109 -124 189t-36 163q0 162 122.5 263t317.5 101q207 0 331.5 -98.5t124.5 -253.5q0 -135 -101 -249t-283 -183q176 -182 344 -324q150 175 192 420l224 -48q-67 -302 -248 -508q152 -108 220 -108q102 0 120 176l200 -44 q-12 -162 -95.5 -251t-224.5 -89q-81 0 -172 40.5t-208 127.5q-230 -168 -524 -168q-256 0 -404 113.5t-148 310.5zM340 404q0 -96 90.5 -156t237.5 -60q176 0 332 100q-181 161 -396 388q-264 -82 -264 -272zM532 1152q0 -54 32.5 -108.5t119.5 -147.5q284 91 284 272 q0 84 -59 132t-161 48q-93 0 -154.5 -56t-61.5 -140z" />
<glyph unicode="'" horiz-adv-x="468" d="M108 1520h252l-28 -544h-200z" />
<glyph unicode="(" horiz-adv-x="944" d="M184 680q0 320 148 582.5t404 397.5l96 -128q-190 -145 -295 -367t-105 -485q0 -260 105 -482t295 -370l-96 -124q-255 135 -403.5 397t-148.5 579z" />
<glyph unicode=")" horiz-adv-x="920" d="M156 -172q190 148 295 370t105 482q0 263 -105 485t-295 367l96 128q256 -135 404 -397.5t148 -582.5q0 -317 -148.5 -579t-403.5 -397z" />
<glyph unicode="*" horiz-adv-x="968" d="M96 1264l44 144l272 -92v284h144v-284l272 92l44 -148l-268 -84l164 -228l-120 -88l-164 228l-164 -228l-120 88l164 228z" />
<glyph unicode="+" d="M176 660v200h440v444h208v-444h440v-200h-440v-444h-208v444h-440z" />
<glyph unicode="," horiz-adv-x="640" d="M164 0v312h312v-288q0 -154 -72 -233t-196 -79h-44v148h40q60 0 86 31.5t26 100.5v8h-152z" />
<glyph unicode="-" horiz-adv-x="976" d="M140 564v232h696v-232h-696z" />
<glyph unicode="." horiz-adv-x="640" d="M164 0v312h312v-312h-312z" />
<glyph unicode="/" horiz-adv-x="952" d="M-80 -80l888 1680h224l-888 -1680h-224z" />
<glyph unicode="0" d="M112 760q0 357 164.5 568.5t443.5 211.5t443.5 -211.5t164.5 -568.5t-164.5 -568.5t-443.5 -211.5t-443.5 211.5t-164.5 568.5zM356 760q0 -264 98 -418t266 -154t266 154t98 418t-98 418t-266 154t-266 -154t-98 -418z" />
<glyph unicode="1" horiz-adv-x="936" d="M68 1072v188h64q102 0 165 11.5t104.5 42.5t60 79t26.5 127h176v-1520h-240v1072h-356z" />
<glyph unicode="2" horiz-adv-x="1236" d="M64 0v156l528 472q151 136 215.5 242t64.5 210q0 114 -73.5 185t-190.5 71q-140 0 -223.5 -86.5t-92.5 -249.5l-224 44q18 230 167.5 363t384.5 133q221 0 358.5 -122.5t137.5 -317.5q0 -154 -98 -297t-326 -343l-280 -244h740v-216h-1088z" />
<glyph unicode="3" horiz-adv-x="1240" d="M20 312l184 108q109 -236 364 -236q156 0 246 81t90 219q0 126 -76.5 203t-199.5 77q-95 0 -164 -44l-120 128l444 456h-700v216h1004v-176l-404 -412q198 0 325 -125t127 -323q0 -217 -159 -360.5t-401 -143.5q-198 0 -344.5 86.5t-215.5 245.5z" />
<glyph unicode="4" horiz-adv-x="1312" d="M60 376v192l692 952h288v-940h244v-204h-244v-376h-232v376h-748zM308 580h500v688z" />
<glyph unicode="5" horiz-adv-x="1268" d="M68 260l160 128q52 -92 148.5 -148t211.5 -56q153 0 246.5 88t93.5 232t-88 232t-232 88q-196 0 -292 -156l-180 60l68 792h852v-220h-664l-32 -380q114 96 292 96q222 0 369 -145t147 -367q0 -231 -160.5 -377.5t-415.5 -146.5q-178 0 -316 75t-208 205z" />
<glyph unicode="6" horiz-adv-x="1332" d="M120 740q0 130 23 246.5t73 218.5t123 176t179 116.5t234 42.5q146 0 271.5 -53.5t204.5 -158.5l-160 -148q-53 77 -133.5 116.5t-178.5 39.5q-114 0 -198 -48.5t-130.5 -132t-68 -181.5t-19.5 -210q66 100 174.5 154t245.5 54q224 0 368 -130t144 -350 q0 -148 -75.5 -266.5t-201 -182t-275.5 -63.5q-123 0 -223.5 40.5t-169.5 110.5t-116.5 167t-69 207.5t-21.5 234.5zM404 488q0 -140 87 -224t229 -84q135 0 227.5 84t92.5 216q0 139 -87.5 221.5t-224.5 82.5q-138 0 -231 -82t-93 -214z" />
<glyph unicode="7" horiz-adv-x="1148" d="M32 1300v220h1100v-180q-248 -230 -392 -586t-144 -754h-248q0 368 145.5 720t370.5 580h-832z" />
<glyph unicode="8" horiz-adv-x="1324" d="M104 404q0 128 70.5 224t197.5 148q-106 48 -165 137.5t-59 202.5q0 193 140 308.5t376 115.5t376 -115.5t140 -308.5q0 -114 -60 -203t-168 -137q130 -51 201 -147.5t71 -224.5q0 -192 -152.5 -308t-407.5 -116q-257 0 -408.5 115.5t-151.5 308.5zM336 424 q0 -117 89 -186.5t239 -69.5q147 0 235.5 69.5t88.5 186.5q0 114 -88.5 181t-235.5 67q-150 0 -239 -67t-89 -181zM372 1104q0 -114 78.5 -181t213.5 -67q132 0 210 67t78 181t-78 181t-210 67q-135 0 -213.5 -67t-78.5 -181z" />
<glyph unicode="9" horiz-adv-x="1332" d="M60 1028q0 148 75.5 266.5t200 182t272.5 63.5q123 0 223.5 -40.5t169.5 -110.5t116.5 -167t69 -207.5t21.5 -234.5q0 -130 -22.5 -246t-72.5 -218.5t-122.5 -176.5t-178.5 -116.5t-236 -42.5q-143 0 -269 53.5t-207 158.5l164 148q53 -77 133.5 -116.5t178.5 -39.5 q112 0 196 48.5t131 132t69 181.5t20 210v4q-66 -102 -174 -157t-246 -55q-226 0 -369 129.5t-143 350.5zM288 1040q0 -138 89 -221t227 -83t231 82t93 214q0 140 -87 224t-229 84q-135 0 -229.5 -84t-94.5 -216z" />
<glyph unicode=":" horiz-adv-x="632" d="M160 0v312h312v-312h-312zM160 888v312h312v-312h-312z" />
<glyph unicode=";" horiz-adv-x="632" d="M160 0v312h312v-288q0 -154 -72 -233t-196 -79h-44v148h40q60 0 86 31.5t26 100.5v8h-152zM160 888v312h312v-312h-312z" />
<glyph unicode="&#x3c;" d="M176 656v208l1088 436v-216l-804 -320l804 -316v-228z" />
<glyph unicode="=" d="M176 388v200h1088v-200h-1088zM176 932v200h1088v-200h-1088z" />
<glyph unicode="&#x3e;" d="M176 220v216l804 320l-804 316v228l1088 -436v-208z" />
<glyph unicode="?" horiz-adv-x="1240" d="M76 1052q21 223 169.5 355.5t378.5 132.5q222 0 359 -118.5t137 -313.5q0 -120 -58.5 -214.5t-193.5 -193.5q-92 -67 -130 -114.5t-38 -97.5v-16h-200q-6 110 33 179t163 169q106 88 143 143t37 129q0 113 -69 178.5t-187 65.5q-137 0 -223 -88.5t-101 -239.5zM452 0v312 h312v-312h-312z" />
<glyph unicode="@" horiz-adv-x="1728" d="M112 412q0 233 102 417.5t284.5 287.5t413.5 103q278 0 447 -142t169 -374v-420q0 -76 76 -76h48v-208q-53 -13 -84 -8q-115 0 -169 44t-63 148q-63 -93 -175 -146.5t-241 -53.5q-175 0 -283.5 97t-108.5 255q0 81 31 144.5t79 104t121 70.5t141 45.5t156 27.5 q154 24 185 36q46 17 47 48q0 91 -105 155.5t-279 64.5q-270 0 -433 -169t-163 -451q0 -291 173.5 -461.5t470.5 -170.5q218 0 380 108l84 -164q-211 -124 -468 -124q-185 0 -341 59t-265 165t-169.5 257.5t-60.5 330.5zM756 348q0 -83 51 -127.5t145 -44.5q141 0 244.5 83 t103.5 197v168q-56 -30 -228 -60q-59 -9 -101 -19t-85.5 -26.5t-70 -38.5t-43 -55.5t-16.5 -76.5z" />
<glyph unicode="A" horiz-adv-x="1588" d="M28 0l612 1520h308l612 -1520h-268l-136 352h-728l-136 -352h-264zM516 576h552l-276 712z" />
<glyph unicode="B" horiz-adv-x="1524" d="M228 0v1520h684q216 0 344 -109t128 -295q0 -114 -49.5 -201.5t-142.5 -138.5q105 -48 162.5 -141.5t57.5 -218.5q0 -193 -130.5 -304.5t-357.5 -111.5h-696zM472 216h404q284 0 284 228t-284 228h-404v-456zM472 884h400q264 0 264 212q0 208 -264 208h-400v-420z" />
<glyph unicode="C" horiz-adv-x="1548" d="M112 760q0 347 201.5 563.5t522.5 216.5q236 0 403 -116.5t233 -331.5l-236 -84q-45 155 -147.5 233.5t-256.5 78.5q-208 0 -334 -153t-126 -407q0 -261 123.5 -410.5t336.5 -149.5q154 0 256.5 78.5t147.5 233.5l236 -84q-66 -210 -234 -329t-402 -119q-330 0 -527 213 t-197 567z" />
<glyph unicode="D" horiz-adv-x="1648" d="M228 0v1520h556q358 0 555 -205t197 -555q0 -167 -51.5 -307.5t-147 -240.5t-237.5 -156t-316 -56h-556zM480 220h304q230 0 361 145t131 395t-131 395t-361 145h-304v-1080z" />
<glyph unicode="E" horiz-adv-x="1376" d="M228 0v1520h1048v-224h-796v-408h616v-216h-616v-448h816v-224h-1068z" />
<glyph unicode="F" horiz-adv-x="1324" d="M228 0v1520h1052v-228h-800v-412h620v-220h-620v-660h-252z" />
<glyph unicode="G" horiz-adv-x="1672" d="M112 756q0 232 93 410t263 276t392 98q229 0 395.5 -105.5t244.5 -302.5l-232 -88q-51 135 -156.5 205.5t-255.5 70.5q-219 0 -351.5 -152.5t-132.5 -407.5q0 -260 125 -410t339 -150q107 0 199 39.5t162 126.5t95 210h-400v196h628v-772h-188l-20 228 q-174 -248 -492 -248q-321 0 -514.5 212.5t-193.5 563.5z" />
<glyph unicode="H" horiz-adv-x="1720" d="M228 0v1520h252v-624h760v624h252v-1520h-252v664h-760v-664h-252z" />
<glyph unicode="I" horiz-adv-x="708" d="M228 0v1520h252v-1520h-252z" />
<glyph unicode="J" horiz-adv-x="1100" d="M-4 300l212 84q19 -89 74 -138.5t146 -49.5q102 0 157 66t55 186v1072h252v-1068q0 -218 -127 -345t-341 -127q-156 0 -270 83t-158 237z" />
<glyph unicode="K" horiz-adv-x="1580" d="M228 0v1520h252v-724l712 724h316l-624 -616l660 -904h-308l-528 728l-228 -224v-504h-252z" />
<glyph unicode="L" horiz-adv-x="1344" d="M228 0v1520h252v-1288h804v-232h-1056z" />
<glyph unicode="M" horiz-adv-x="2152" d="M228 0v1520h388l464 -1224l460 1224h384v-1520h-244v1232l-464 -1232h-280l-464 1232v-1232h-244z" />
<glyph unicode="N" horiz-adv-x="1728" d="M228 0v1520h248l784 -1116v1116h240v-1520h-244l-788 1124v-1124h-240z" />
<glyph unicode="O" horiz-adv-x="1688" d="M112 760q0 229 92.5 407t259 275.5t380.5 97.5q333 0 532.5 -213t199.5 -567q0 -229 -92.5 -407t-259 -275.5t-380.5 -97.5q-333 0 -532.5 213t-199.5 567zM372 760q0 -253 128.5 -406.5t343.5 -153.5t343.5 153.5t128.5 406.5t-128.5 406.5t-343.5 153.5t-343.5 -153.5 t-128.5 -406.5z" />
<glyph unicode="P" horiz-adv-x="1480" d="M228 0v1520h636q249 0 394.5 -126t145.5 -342q0 -219 -145.5 -345.5t-394.5 -126.5h-384v-580h-252zM480 796h352q156 0 236 64.5t80 187.5q0 252 -316 252h-352v-504z" />
<glyph unicode="Q" horiz-adv-x="1688" d="M112 760q0 229 92.5 407t259 275.5t380.5 97.5q333 0 532.5 -213t199.5 -567q0 -313 -166.5 -521.5t-441.5 -250.5v-72q0 -120 132 -120q68 0 188 8v-204q-128 -8 -204 -8q-170 0 -259 78.5t-89 257.5v60q-288 33 -456 240.5t-168 531.5zM372 760q0 -253 128.5 -406.5 t343.5 -153.5t343.5 153.5t128.5 406.5t-128.5 406.5t-343.5 153.5t-343.5 -153.5t-128.5 -406.5z" />
<glyph unicode="R" horiz-adv-x="1552" d="M228 0v1520h628q249 0 394.5 -125.5t145.5 -338.5q0 -155 -79 -266t-221 -162l384 -628h-288l-356 592h-360v-592h-248zM476 800h356q304 0 304 252q0 248 -304 248h-356v-500z" />
<glyph unicode="S" horiz-adv-x="1392" d="M80 200l148 192q95 -92 221.5 -142t262.5 -50q156 0 244 56.5t88 155.5q0 81 -73.5 128.5t-270.5 103.5q-59 17 -96 28.5t-90.5 30t-88 34.5t-78.5 39t-71.5 46t-56.5 54.5t-45.5 65t-27 76t-10.5 90.5q0 197 157 314.5t419 117.5q314 0 548 -180l-140 -192 q-185 152 -424 152q-140 0 -224 -55t-84 -145q0 -82 80 -133t280 -103q139 -35 234 -72.5t169 -89.5t109.5 -122.5t35.5 -163.5q0 -211 -161.5 -333.5t-442.5 -122.5q-179 0 -337.5 56.5t-274.5 163.5z" />
<glyph unicode="T" horiz-adv-x="1416" d="M40 1288v232h1336v-232h-540v-1288h-256v1288h-540z" />
<glyph unicode="U" horiz-adv-x="1696" d="M208 600v920h252v-916q0 -186 104 -293t284 -107t284 107t104 293v916h252v-920q0 -283 -173.5 -451.5t-466.5 -168.5t-466.5 168.5t-173.5 451.5z" />
<glyph unicode="V" horiz-adv-x="1560" d="M52 1520h268l464 -1260l456 1260h268l-576 -1520h-308z" />
<glyph unicode="W" horiz-adv-x="2244" d="M72 1520h260l328 -1160l328 1160h268l332 -1168l336 1168h248l-440 -1520h-264l-348 1192l-344 -1192h-264z" />
<glyph unicode="X" horiz-adv-x="1512" d="M36 0l572 776l-536 744h296l392 -556l396 556h284l-532 -736l568 -784h-292l-432 600l-424 -600h-292z" />
<glyph unicode="Y" horiz-adv-x="1484" d="M16 1520h292l440 -684l436 684h284l-600 -920v-600h-252v608z" />
<glyph unicode="Z" horiz-adv-x="1412" d="M92 0v200l896 1088h-852v232h1180v-200l-892 -1088h892v-232h-1224z" />
<glyph unicode="[" horiz-adv-x="944" d="M228 -240v1840h560v-200h-332v-1440h332v-200h-560z" />
<glyph unicode="\" horiz-adv-x="952" d="M-80 1600h224l888 -1680h-224z" />
<glyph unicode="]" horiz-adv-x="960" d="M252 -40h332v1440h-332v200h560v-1840h-560v200z" />
<glyph unicode="^" d="M216 760l392 760h224l392 -760h-220l-284 564l-288 -564h-216z" />
<glyph unicode="_" horiz-adv-x="1040" d="M12 -16h1016v-224h-1016v224z" />
<glyph unicode="`" horiz-adv-x="640" d="M68 1604h288l120 -292h-172z" />
<glyph unicode="a" horiz-adv-x="1288" d="M80 332q0 62 17 113.5t44 88t70 67t84 49.5t98 35.5t101 25t102 17.5q63 8 98 14t73 16t55.5 22.5t29.5 32.5t12 47q0 72 -69 116t-183 44q-101 0 -194 -42t-166 -118l-148 156q216 204 520 204q216 0 340 -105t124 -291v-540q0 -76 76 -76h44v-208q-24 -8 -84 -8 q-112 0 -166 44t-66 148q-63 -94 -176 -149t-244 -55q-176 0 -284 97.5t-108 254.5zM316 348q0 -83 51 -127.5t145 -44.5q138 0 241 83t103 197v156q-21 -13 -58 -24t-68.5 -17t-105.5 -19q-34 -5 -51 -8t-48.5 -9.5t-48.5 -11.5t-42.5 -14.5t-39.5 -19.5t-31.5 -24.5 t-26 -31t-14.5 -38.5t-6 -47z" />
<glyph unicode="b" horiz-adv-x="1448" d="M188 0v1600h240v-568q150 188 396 188q237 0 380.5 -169t143.5 -451q0 -275 -146 -447.5t-378 -172.5q-132 0 -237.5 52.5t-174.5 151.5l-16 -184h-208zM412 600q0 -189 94.5 -302.5t253.5 -113.5q158 0 251 113t93 303t-93 303t-251 113q-159 0 -253.5 -113.5 t-94.5 -302.5z" />
<glyph unicode="c" horiz-adv-x="1304" d="M100 600q0 276 166.5 448t433.5 172q197 0 341.5 -95.5t194.5 -264.5l-228 -72q-40 107 -119.5 167.5t-188.5 60.5q-164 0 -260 -113t-96 -303t96 -303t260 -113q107 0 188 61t120 167l228 -72q-50 -169 -195.5 -264.5t-340.5 -95.5q-267 0 -433.5 172t-166.5 448z" />
<glyph unicode="d" horiz-adv-x="1448" d="M100 600q0 275 146 447.5t378 172.5q123 0 225 -46.5t171 -133.5v560h240v-1600h-208l-16 188q-73 -100 -178.5 -154t-233.5 -54q-237 0 -380.5 169t-143.5 451zM344 600q0 -190 93 -303t251 -113q159 0 253.5 113.5t94.5 302.5t-94.5 302.5t-253.5 113.5 q-158 0 -251 -113t-93 -303z" />
<glyph unicode="e" horiz-adv-x="1364" d="M100 600q0 276 164 448t428 172t422 -169t158 -451q0 -48 -8 -76h-924q21 -158 118 -249t254 -91q235 0 356 156l164 -144q-82 -98 -212 -157t-308 -59q-145 0 -262 46.5t-193 130t-116.5 196.5t-40.5 247zM344 708h684q-24 147 -112.5 229.5t-223.5 82.5 q-139 0 -230 -83t-118 -229z" />
<glyph unicode="f" horiz-adv-x="936" d="M56 996v204h248v84q0 159 104 251.5t284 92.5q178 0 328 -100l-112 -180q-101 76 -224 76q-66 0 -103 -39t-37 -105v-80h344v-204h-344v-996h-240v996h-248z" />
<glyph unicode="g" horiz-adv-x="1448" d="M100 636q0 260 146 422t378 162q130 0 236 -50.5t176 -141.5l16 172h208l-4 -1076q0 -244 -156 -394t-428 -150q-316 0 -488 172l128 168q70 -73 154.5 -104.5t201.5 -31.5q98 0 169.5 26.5t113.5 74t61.5 108t19.5 135.5v116q-154 -192 -408 -192q-237 0 -380.5 160 t-143.5 424zM344 632q0 -176 93.5 -280t250.5 -104q159 0 253.5 103.5t94.5 280.5q0 174 -94.5 279t-253.5 105q-156 0 -250 -105t-94 -279z" />
<glyph unicode="h" horiz-adv-x="1436" d="M188 0v1600h240v-568q70 88 175 138t229 50q195 0 315.5 -126.5t120.5 -333.5v-760h-240v696q0 152 -70 236t-194 84q-140 0 -238 -93t-98 -235v-688h-240z" />
<glyph unicode="i" horiz-adv-x="656" d="M196 1368v240h264v-240h-264zM208 0v1200h240v-1200h-240z" />
<glyph unicode="j" horiz-adv-x="640" d="M0 -184q32 -4 92 -4q120 0 120 124v1264h240v-1268q0 -179 -85.5 -259.5t-246.5 -80.5q-48 0 -120 8v216zM200 1368v240h264v-240h-264z" />
<glyph unicode="k" horiz-adv-x="1300" d="M188 0v1600h240v-936l540 536h304l-500 -480l524 -720h-292l-404 556l-172 -164v-392h-240z" />
<glyph unicode="l" horiz-adv-x="616" d="M188 0v1600h240v-1600h-240z" />
<glyph unicode="m" horiz-adv-x="2220" d="M188 0v1200h208l16 -180q64 94 169 147t235 53q133 0 230.5 -61t149.5 -171q64 107 176.5 169.5t251.5 62.5q194 0 311 -126t117 -334v-760h-240v696q0 154 -65 237t-187 83q-139 0 -229.5 -92.5t-90.5 -235.5v-688h-240v696q0 155 -63.5 237.5t-188.5 82.5 q-139 0 -229.5 -92.5t-90.5 -235.5v-688h-240z" />
<glyph unicode="n" d="M188 0v1200h208l16 -188q70 98 180.5 153t243.5 55q193 0 314.5 -127t121.5 -333v-760h-240v696q0 152 -70 236t-194 84q-143 0 -241.5 -93t-98.5 -235v-688h-240z" />
<glyph unicode="o" horiz-adv-x="1416" d="M100 600q0 276 169 448t439 172q276 0 442 -169t166 -451q0 -276 -169 -448t-439 -172q-276 0 -442 169t-166 451zM344 600q0 -189 99.5 -302.5t264.5 -113.5t264.5 113.5t99.5 302.5t-99.5 302.5t-264.5 113.5t-264.5 -113.5t-99.5 -302.5z" />
<glyph unicode="p" horiz-adv-x="1448" d="M188 -400v1600h208l16 -188q73 100 178.5 154t233.5 54q237 0 380.5 -169t143.5 -451q0 -275 -146 -447.5t-378 -172.5q-123 0 -225 46.5t-171 133.5v-560h-240zM412 600q0 -189 94.5 -302.5t253.5 -113.5q158 0 251 113t93 303t-93 303t-251 113q-159 0 -253.5 -113.5 t-94.5 -302.5z" />
<glyph unicode="q" horiz-adv-x="1448" d="M100 600q0 275 146 447.5t378 172.5q132 0 237.5 -52.5t174.5 -151.5l16 184h208v-1600h-240v568q-150 -188 -396 -188q-237 0 -380.5 169t-143.5 451zM344 600q0 -190 93 -303t251 -113q159 0 253.5 113.5t94.5 302.5t-94.5 302.5t-253.5 113.5q-158 0 -251 -113 t-93 -303z" />
<glyph unicode="r" horiz-adv-x="964" d="M188 0v1200h208l16 -192q67 98 177.5 155t242.5 57q44 0 92 -12v-228q-104 8 -160 8q-146 0 -241 -87t-95 -229v-672h-240z" />
<glyph unicode="s" horiz-adv-x="1152" d="M64 164l132 172q154 -148 392 -148q116 0 182 36t66 104q0 58 -61 96t-223 76q-235 60 -335.5 143.5t-100.5 220.5q0 162 129.5 259t342.5 97q252 0 456 -148l-136 -180q-149 124 -332 124q-103 0 -165.5 -37t-62.5 -99q0 -57 57.5 -93t210.5 -75q247 -63 349.5 -147 t102.5 -225q0 -165 -131.5 -262.5t-356.5 -97.5q-314 0 -516 184z" />
<glyph unicode="t" horiz-adv-x="992" d="M52 996v204h236l32 320h208v-320h368v-204h-368v-632q0 -90 40.5 -125t131.5 -35q100 0 196 24v-220q-112 -28 -244 -28q-177 0 -270.5 85.5t-93.5 250.5v680h-236z" />
<glyph unicode="u" d="M168 440v760h240v-696q0 -152 70 -236t194 -84q143 0 241.5 93t98.5 235v688h240v-1200h-208l-16 188q-70 -98 -180.5 -153t-243.5 -55q-193 0 -314.5 127t-121.5 333z" />
<glyph unicode="v" horiz-adv-x="1296" d="M36 1200h264l352 -956l356 956h252l-472 -1200h-280z" />
<glyph unicode="w" horiz-adv-x="1896" d="M56 1200h248l260 -928l268 928h236l272 -928l264 928h236l-368 -1200h-260l-264 880l-260 -880h-264z" />
<glyph unicode="x" horiz-adv-x="1324" d="M52 0l460 612l-436 588h284l308 -424l312 424h272l-436 -588l456 -612h-288l-324 448l-328 -448h-280z" />
<glyph unicode="y" horiz-adv-x="1312" d="M28 1200h264l420 -1004l328 1004h248l-444 -1244q-61 -173 -164 -274.5t-248 -101.5q-87 0 -154.5 29t-108 78.5t-61 111.5t-20.5 133l220 36v-17q0 -155 128 -155q88 0 156 124z" />
<glyph unicode="z" horiz-adv-x="1184" d="M76 0v196l712 800h-676v204h976v-196l-708 -800h724v-204h-1028z" />
<glyph unicode="{" horiz-adv-x="944" d="M120 580v200h64q59 0 85.5 39.5t26.5 124.5v400q0 123 66.5 189.5t189.5 66.5h232v-200h-184q-36 0 -56 -20t-20 -56v-388q0 -200 -136 -256q136 -56 136 -256v-388q0 -36 20 -56t56 -20h184v-200h-232q-123 0 -189.5 66.5t-66.5 189.5v400q0 85 -26.5 124.5t-85.5 39.5 h-64z" />
<glyph unicode="|" horiz-adv-x="684" d="M228 -240v1840h228v-1840h-228z" />
<glyph unicode="}" horiz-adv-x="920" d="M96 -40h184q36 0 56 20t20 56v388q0 200 136 256q-136 56 -136 256v388q0 36 -20 56t-56 20h-184v200h232q123 0 189.5 -66.5t66.5 -189.5v-400q0 -85 26.5 -124.5t85.5 -39.5h64v-200h-64q-59 0 -85.5 -39.5t-26.5 -124.5v-400q0 -123 -66.5 -189.5t-189.5 -66.5h-232 v200z" />
<glyph unicode="~" d="M124 712q21 36 47.5 69.5t70 73.5t104.5 64.5t130 24.5q61 0 117 -17.5t99 -42t84.5 -49t90 -42t97.5 -17.5q113 0 204 152l148 -116q-142 -236 -352 -236q-61 0 -117 17.5t-99 42t-84.5 49t-90 42t-97.5 17.5q-112 0 -204 -148z" />
<glyph unicode="&#xa2;" horiz-adv-x="1312" d="M100 760q0 251 139.5 418.5t368.5 197.5v144h160v-144q174 -15 299 -109t169 -251l-224 -68q-30 90 -93.5 147.5t-150.5 72.5v-816q87 15 151 72t97 148l220 -68q-44 -157 -169 -251t-299 -109v-144h-160v144q-229 30 -368.5 197.5t-139.5 418.5zM336 760 q0 -162 73 -269.5t199 -134.5v808q-126 -27 -199 -134.5t-73 -269.5z" />
<glyph unicode="&#xa3;" d="M32 232q0 120 79.5 188t208.5 68q85 0 152 -28q-10 110 -60 224h-288v152h208q-80 153 -80 288q0 191 134.5 303.5t357.5 112.5q212 0 346 -110.5t158 -293.5l-220 -60q-18 126 -93 195t-195 69q-111 0 -183.5 -61.5t-72.5 -166.5q0 -63 22 -126t66 -150h396v-152h-332 q44 -125 44 -228q0 -36 -8 -100q17 -12 56 -39.5t58 -40.5t52.5 -33.5t56.5 -30t52.5 -17t56.5 -7.5q64 0 93 45t35 139l220 -32q-9 -185 -87 -272.5t-229 -87.5q-52 0 -104 12t-90.5 28t-87 46t-76 50t-74.5 56q-52 -89 -132 -140.5t-172 -51.5q-120 0 -194 70.5t-74 181.5 zM196 232q0 -40 31.5 -62t76.5 -22q56 0 94.5 35t57.5 97q-75 44 -144 44q-52 0 -84 -24t-32 -68z" />
<glyph unicode="&#xa5;" horiz-adv-x="1512" d="M16 1520h292l436 -684l436 684h288l-504 -772h232v-152h-328v-168h328v-152h-328v-276h-252v276h-300v152h300v168h-300v152h204z" />
<glyph unicode="&#xa8;" horiz-adv-x="640" d="M64 1368v240h260v-240h-260zM476 1368v240h260v-240h-260z" />
<glyph unicode="&#xa9;" horiz-adv-x="1784" d="M112 760q0 167 58.5 312t161.5 248t248 161.5t312 58.5t312 -58.5t248 -161.5t161.5 -248t58.5 -312t-58.5 -312t-161.5 -248t-248 -161.5t-312 -58.5t-312 58.5t-248 161.5t-161.5 248t-58.5 312zM268 760q0 -182 79.5 -326t222 -225t322.5 -81t322.5 81t222 225 t79.5 326t-79.5 326t-222 225t-322.5 81t-322.5 -81t-222 -225t-79.5 -326zM492 760q0 189 114.5 306.5t297.5 117.5q134 0 231 -66t133 -178l-192 -68q-21 61 -65.5 94.5t-106.5 33.5q-96 0 -150 -64.5t-54 -175.5t54 -175.5t150 -64.5q62 0 106.5 33.5t65.5 94.5l192 -68 q-36 -112 -133 -178t-231 -66q-183 0 -297.5 117.5t-114.5 306.5z" />
<glyph unicode="&#xab;" horiz-adv-x="1352" d="M144 560v240l488 344v-260l-284 -200l284 -200v-268zM684 560v240l488 344v-260l-284 -200l284 -200v-268z" />
<glyph unicode="&#xad;" horiz-adv-x="976" d="M140 564v232h696v-232h-696z" />
<glyph unicode="&#xae;" horiz-adv-x="1104" d="M152 1140q0 174 113 287t287 113t287 -113t113 -287t-113 -287t-287 -113t-287 113t-113 287zM252 1140q0 -129 85.5 -214.5t214.5 -85.5t214.5 85.5t85.5 214.5t-85.5 214.5t-214.5 85.5t-214.5 -85.5t-85.5 -214.5zM388 940v408h188q64 0 106 -36t42 -92q0 -71 -56 -96 q40 -13 40 -60v-4q0 -20 20 -20h4v-100h-52q-39 0 -61.5 22.5t-22.5 61.5v16q0 18 -7 25t-25 7h-68v-132h-108zM496 1176h68q48 0 48 32q0 36 -48 36h-68v-68z" />
<glyph unicode="&#xb4;" horiz-adv-x="640" d="M324 1312l120 292h288l-236 -292h-172z" />
<glyph unicode="&#xb8;" horiz-adv-x="640" d="M160 -360l76 120q93 -68 184 -68q48 0 76 16.5t28 43.5q0 24 -21 38t-55 14q-47 0 -80 -20l-116 60l104 168h156l-60 -100q16 4 44 4q88 0 144 -45.5t56 -122.5q0 -84 -76.5 -136t-199.5 -52q-149 0 -260 80z" />
<glyph unicode="&#xbb;" horiz-adv-x="1352" d="M184 216v260l280 200l-280 200v268l488 -344v-240zM724 216v260l280 200l-280 200v268l488 -344v-240z" />
<glyph unicode="&#x2c6;" horiz-adv-x="640" d="M44 1312l236 292h248l240 -292h-216l-148 152l-148 -152h-212z" />
<glyph unicode="&#x2da;" horiz-adv-x="640" d="M132 1576q0 116 76.5 190t191.5 74t191.5 -74t76.5 -190q0 -114 -77 -189t-191 -75t-191 75t-77 189zM284 1576q0 -51 32.5 -83.5t83.5 -32.5t83.5 32.5t32.5 83.5t-32.5 83.5t-83.5 32.5t-83.5 -32.5t-32.5 -83.5z" />
<glyph unicode="&#x2dc;" horiz-adv-x="640" d="M32 1424q35 94 97 143t139 49q51 0 101 -25t90 -50t69 -25q33 0 58 22.5t46 73.5l144 -76q-32 -94 -94 -143t-142 -49q-50 0 -98.5 25t-88.5 50t-69 25q-68 0 -108 -96z" />
<glyph unicode="&#x401;" horiz-adv-x="1376" d="M228 0v1520h1048v-224h-796v-408h616v-216h-616v-448h816v-224h-1068zM416 1688v240h260v-240h-260zM828 1688v240h260v-240h-260z" />
<glyph unicode="&#x404;" horiz-adv-x="1548" d="M112 760q0 172 52.5 317.5t147 247t229.5 158.5t295 57q235 0 403 -116t237 -328l-232 -84q-48 151 -152.5 229.5t-259.5 78.5q-183 0 -305 -115t-155 -317h612v-216h-616q21 -224 144.5 -348t319.5 -124q155 0 259.5 78.5t152.5 229.5l232 -84q-69 -208 -238 -326 t-402 -118q-330 0 -527 213t-197 567z" />
<glyph unicode="&#x406;" horiz-adv-x="708" d="M228 0v1520h252v-1520h-252z" />
<glyph unicode="&#x407;" horiz-adv-x="708" d="M20 1688v240h260v-240h-260zM228 0v1520h252v-1520h-252zM432 1688v240h260v-240h-260z" />
<glyph unicode="&#x40e;" horiz-adv-x="1536" d="M36 1520h288l516 -996l376 996h268l-500 -1212q-130 -328 -396 -328q-150 0 -242 95t-98 245l212 52q6 -92 38.5 -136t97.5 -44q96 0 136 84zM396 1916l188 32q9 -75 55 -115.5t121 -40.5t121 40.5t55 115.5l188 -32q-15 -135 -111.5 -209.5t-252.5 -74.5t-252.5 74.5 t-111.5 209.5z" />
<glyph unicode="&#x410;" horiz-adv-x="1588" d="M28 0l612 1520h308l612 -1520h-268l-136 352h-728l-136 -352h-264zM516 576h552l-276 712z" />
<glyph unicode="&#x411;" horiz-adv-x="1508" d="M228 0v1520h1060v-224h-808v-372h396q247 0 391.5 -123.5t144.5 -336.5t-145 -338.5t-391 -125.5h-648zM480 216h364q308 0 308 248q0 252 -308 252h-364v-500z" />
<glyph unicode="&#x412;" horiz-adv-x="1524" d="M228 0v1520h684q216 0 344 -109t128 -295q0 -114 -49.5 -201.5t-142.5 -138.5q105 -48 162.5 -141.5t57.5 -218.5q0 -193 -130.5 -304.5t-357.5 -111.5h-696zM472 216h404q284 0 284 228t-284 228h-404v-456zM472 884h400q264 0 264 212q0 208 -264 208h-400v-420z" />
<glyph unicode="&#x413;" horiz-adv-x="1288" d="M228 0v1520h1016v-232h-764v-1288h-252z" />
<glyph unicode="&#x414;" horiz-adv-x="1704" d="M64 232h160q48 186 48 612v676h1180v-1288h176v-552h-244v320h-1072v-320h-248v552zM468 228h732v1064h-680v-448q0 -356 -52 -616z" />
<glyph unicode="&#x415;" horiz-adv-x="1376" d="M228 0v1520h1048v-224h-796v-408h616v-216h-616v-448h816v-224h-1068z" />
<glyph unicode="&#x416;" horiz-adv-x="2312" d="M36 0l600 916l-592 604h316l672 -708v708h252v-704l672 704h312l-588 -608l596 -912h-300l-476 736l-216 -220v-516h-252v516l-216 220l-476 -736h-304z" />
<glyph unicode="&#x417;" horiz-adv-x="1392" d="M68 356l212 112q52 -125 162 -196.5t258 -71.5q160 0 254 67.5t94 184.5q0 102 -82 161t-226 59h-200v212h204q111 0 181.5 53t70.5 147q0 109 -79 172.5t-221 63.5q-143 0 -241 -68t-147 -192l-228 88q72 181 238.5 286.5t381.5 105.5q250 0 399 -117t149 -315 q0 -111 -55 -195t-157 -129q128 -46 196 -135t68 -217q0 -204 -165.5 -328t-438.5 -124q-225 0 -390 101t-238 275z" />
<glyph unicode="&#x418;" horiz-adv-x="1728" d="M228 0v1520h252v-1128l772 1128h248v-1520h-252v1132l-776 -1132h-244z" />
<glyph unicode="&#x419;" horiz-adv-x="1728" d="M228 0v1520h252v-1128l772 1128h248v-1520h-252v1132l-776 -1132h-244zM500 1916l188 32q9 -75 55 -115.5t121 -40.5t121 40.5t55 115.5l188 -32q-15 -135 -111.5 -209.5t-252.5 -74.5t-252.5 74.5t-111.5 209.5z" />
<glyph unicode="&#x41a;" horiz-adv-x="1580" d="M228 0v1520h252v-724l712 724h316l-624 -616l660 -904h-308l-528 728l-228 -224v-504h-252z" />
<glyph unicode="&#x41b;" horiz-adv-x="1716" d="M96 0v240h68q41 0 62 3.5t44 23t33 54.5t19 104t11.5 164.5t2.5 242.5v688h1152v-1520h-256v1288h-644v-472q0 -161 -5.5 -274.5t-20 -210.5t-39 -157.5t-63.5 -103.5t-92.5 -60.5t-127.5 -17.5q-84 0 -144 8z" />
<glyph unicode="&#x41c;" horiz-adv-x="2152" d="M228 0v1520h388l464 -1224l460 1224h384v-1520h-244v1232l-464 -1232h-280l-464 1232v-1232h-244z" />
<glyph unicode="&#x41d;" horiz-adv-x="1720" d="M228 0v1520h252v-624h760v624h252v-1520h-252v664h-760v-664h-252z" />
<glyph unicode="&#x41e;" horiz-adv-x="1688" d="M112 760q0 229 92.5 407t259 275.5t380.5 97.5q333 0 532.5 -213t199.5 -567q0 -229 -92.5 -407t-259 -275.5t-380.5 -97.5q-333 0 -532.5 213t-199.5 567zM372 760q0 -253 128.5 -406.5t343.5 -153.5t343.5 153.5t128.5 406.5t-128.5 406.5t-343.5 153.5t-343.5 -153.5 t-128.5 -406.5z" />
<glyph unicode="&#x41f;" horiz-adv-x="1720" d="M228 0v1520h1264v-1520h-252v1288h-760v-1288h-252z" />
<glyph unicode="&#x420;" horiz-adv-x="1480" d="M228 0v1520h636q249 0 394.5 -126t145.5 -342q0 -219 -145.5 -345.5t-394.5 -126.5h-384v-580h-252zM480 796h352q156 0 236 64.5t80 187.5q0 252 -316 252h-352v-504z" />
<glyph unicode="&#x421;" horiz-adv-x="1548" d="M112 760q0 347 201.5 563.5t522.5 216.5q236 0 403 -116.5t233 -331.5l-236 -84q-45 155 -147.5 233.5t-256.5 78.5q-208 0 -334 -153t-126 -407q0 -261 123.5 -410.5t336.5 -149.5q154 0 256.5 78.5t147.5 233.5l236 -84q-66 -210 -234 -329t-402 -119q-330 0 -527 213 t-197 567z" />
<glyph unicode="&#x422;" horiz-adv-x="1416" d="M40 1288v232h1336v-232h-540v-1288h-256v1288h-540z" />
<glyph unicode="&#x423;" horiz-adv-x="1536" d="M36 1520h288l516 -996l376 996h268l-500 -1212q-130 -328 -396 -328q-150 0 -242 95t-98 245l212 52q6 -92 38.5 -136t97.5 -44q96 0 136 84z" />
<glyph unicode="&#x424;" horiz-adv-x="1964" d="M96 780q0 271 179 435.5t493 164.5h88v164h252v-164h88q320 0 496 -161.5t176 -438.5q0 -271 -179 -435.5t-493 -164.5h-88v-204h-252v204h-88q-320 0 -496 161.5t-176 438.5zM352 780q0 -191 106 -287.5t314 -96.5h84v768h-84q-202 0 -311 -99.5t-109 -284.5zM1108 396 h84q202 0 311 99.5t109 284.5q0 191 -106 287.5t-314 96.5h-84v-768z" />
<glyph unicode="&#x425;" horiz-adv-x="1512" d="M36 0l572 776l-536 744h296l392 -556l396 556h284l-532 -736l568 -784h-292l-432 600l-424 -600h-292z" />
<glyph unicode="&#x426;" horiz-adv-x="1716" d="M228 0v1520h252v-1288h728v1288h252v-1288h180v-552h-248v320h-1164z" />
<glyph unicode="&#x427;" horiz-adv-x="1584" d="M144 1072v448h252v-436q0 -132 73.5 -194t226.5 -62h404v692h256v-1520h-256v600h-424q-259 0 -395.5 119.5t-136.5 352.5z" />
<glyph unicode="&#x428;" horiz-adv-x="2396" d="M228 0v1520h252v-1288h592v1288h252v-1288h588v1288h256v-1520h-1940z" />
<glyph unicode="&#x429;" horiz-adv-x="2420" d="M228 0v1520h252v-1288h592v1288h252v-1288h588v1288h256v-1288h176v-552h-244v320h-1872z" />
<glyph unicode="&#x42a;" horiz-adv-x="1712" d="M40 1288v232h648v-580h388q252 0 398 -126.5t146 -345.5q0 -216 -146 -342t-398 -126h-640v1288h-396zM688 220h364q312 0 312 252q0 124 -78.5 188t-233.5 64h-364v-504z" />
<glyph unicode="&#x42b;" horiz-adv-x="2136" d="M228 0v1520h252v-580h388q252 0 398 -126.5t146 -345.5q0 -216 -146 -342t-398 -126h-640zM480 220h364q312 0 312 252q0 124 -78.5 188t-233.5 64h-364v-504zM1656 0v1520h252v-1520h-252z" />
<glyph unicode="&#x42c;" horiz-adv-x="1504" d="M228 0v1520h252v-580h388q252 0 398 -126.5t146 -345.5q0 -216 -146 -342t-398 -126h-640zM480 220h364q312 0 312 252q0 124 -78.5 188t-233.5 64h-364v-504z" />
<glyph unicode="&#x42d;" horiz-adv-x="1532" d="M56 424l232 84q45 -150 150 -229t258 -79q195 0 321 126.5t147 345.5h-616v216h612q-30 204 -152.5 318t-311.5 114q-153 0 -258 -79t-150 -229l-232 84q71 210 243.5 327t400.5 117q327 0 523.5 -213t196.5 -567q0 -229 -90.5 -407t-254 -275.5t-375.5 -97.5 q-232 0 -401.5 119t-242.5 325z" />
<glyph unicode="&#x42e;" horiz-adv-x="2300" d="M228 0v1520h252v-624h300q39 292 229 468t471 176q321 0 514.5 -213t193.5 -567q0 -229 -89 -407t-250 -275.5t-369 -97.5q-299 0 -488 185t-216 499h-296v-664h-252zM1028 760q0 -255 122.5 -407.5t329.5 -152.5q204 0 326 152.5t122 407.5t-122 407.5t-326 152.5 q-207 0 -329.5 -152.5t-122.5 -407.5z" />
<glyph unicode="&#x42f;" horiz-adv-x="1556" d="M72 0l384 628q-140 52 -218 163t-78 265q0 213 145.5 338.5t394.5 125.5h628v-1520h-252v588h-364l-356 -588h-284zM416 1048q0 -248 308 -248h352v500h-352q-152 0 -230 -64t-78 -188z" />
<glyph unicode="&#x430;" horiz-adv-x="1288" d="M80 332q0 62 17 113.5t44 88t70 67t84 49.5t98 35.5t101 25t102 17.5q63 8 98 14t73 16t55.5 22.5t29.5 32.5t12 47q0 72 -69 116t-183 44q-101 0 -194 -42t-166 -118l-148 156q216 204 520 204q216 0 340 -105t124 -291v-540q0 -76 76 -76h44v-208q-24 -8 -84 -8 q-112 0 -166 44t-66 148q-63 -94 -176 -149t-244 -55q-176 0 -284 97.5t-108 254.5zM316 348q0 -83 51 -127.5t145 -44.5q138 0 241 83t103 197v156q-21 -13 -58 -24t-68.5 -17t-105.5 -19q-34 -5 -51 -8t-48.5 -9.5t-48.5 -11.5t-42.5 -14.5t-39.5 -19.5t-31.5 -24.5 t-26 -31t-14.5 -38.5t-6 -47z" />
<glyph unicode="&#x431;" horiz-adv-x="1372" d="M116 668q0 348 130 537.5t406 246.5l284 60q65 12 76 80l8 36l228 -40l-4 -40q-18 -199 -232 -248l-348 -72q-158 -33 -237.5 -116.5t-94.5 -231.5q67 94 178.5 145t257.5 51q222 0 367.5 -151.5t148.5 -388.5q3 -243 -159.5 -399.5t-420.5 -156.5q-270 0 -429 186.5 t-159 501.5zM368 544q0 -159 93 -259.5t243 -100.5q153 0 242.5 94.5t89.5 253.5q0 165 -89.5 260.5t-242.5 95.5q-154 0 -245 -93t-91 -251z" />
<glyph unicode="&#x432;" horiz-adv-x="1292" d="M188 0v1200h536q204 0 316 -77t112 -235q0 -97 -44.5 -166t-127.5 -106q204 -74 204 -288q0 -160 -109 -244t-307 -84h-580zM420 192h324q96 0 148 43t52 121t-57 123t-159 45h-308v-332zM420 704h304q102 0 147 36t45 120q0 71 -47.5 109.5t-132.5 38.5h-316v-304z" />
<glyph unicode="&#x433;" horiz-adv-x="1092" d="M188 0v1200h864v-220h-624v-980h-240z" />
<glyph unicode="&#x434;" horiz-adv-x="1464" d="M68 212h140q36 144 36 488v500h984v-988h160v-492h-228v280h-864v-280h-228v492zM440 212h552v776h-516v-300q0 -296 -36 -476z" />
<glyph unicode="&#x435;" horiz-adv-x="1364" d="M100 600q0 276 164 448t428 172t422 -169t158 -451q0 -48 -8 -76h-924q21 -158 118 -249t254 -91q235 0 356 156l164 -144q-82 -98 -212 -157t-308 -59q-145 0 -262 46.5t-193 130t-116.5 196.5t-40.5 247zM344 708h684q-24 147 -112.5 229.5t-223.5 82.5 q-139 0 -230 -83t-118 -229z" />
<glyph unicode="&#x436;" horiz-adv-x="1932" d="M20 0l492 724l-472 476h304l504 -532v532h240v-528l504 528h300l-468 -472l488 -728h-288l-372 564l-164 -164v-400h-240v396l-168 168l-368 -564h-292z" />
<glyph unicode="&#x437;" horiz-adv-x="1132" d="M40 300l200 88q48 -102 130 -155t190 -53q121 0 190.5 45.5t69.5 126.5q0 76 -63 120t-173 44h-152v188h144q95 0 147.5 41.5t52.5 114.5q0 78 -56.5 121t-155.5 43q-102 0 -175.5 -49.5t-112.5 -142.5l-196 104q63 133 192.5 208.5t299.5 75.5q198 0 317.5 -94.5 t122.5 -253.5q0 -174 -156 -252q101 -33 154.5 -105t53.5 -175q0 -160 -140.5 -260t-367.5 -100q-185 0 -320.5 84.5t-195.5 235.5z" />
<glyph unicode="&#x438;" horiz-adv-x="1444" d="M188 0v1200h236v-864l584 864h248v-1200h-236v872l-584 -872h-248z" />
<glyph unicode="&#x439;" horiz-adv-x="1444" d="M188 0v1200h236v-864l584 864h248v-1200h-236v872l-584 -872h-248zM356 1596l188 32q9 -75 55 -115.5t121 -40.5t121 40.5t55 115.5l188 -32q-15 -135 -111.5 -209.5t-252.5 -74.5t-252.5 74.5t-111.5 209.5z" />
<glyph unicode="&#x43a;" horiz-adv-x="1300" d="M188 0v1200h240v-536l540 536h304l-500 -480l524 -720h-292l-404 556l-172 -164v-392h-240z" />
<glyph unicode="&#x43b;" horiz-adv-x="1412" d="M52 0v220h64q58 0 83.5 20.5t39 97.5t13.5 242v620h972v-1200h-240v988h-496v-432q0 -218 -33.5 -341t-102 -173t-188.5 -50q-56 0 -112 8z" />
<glyph unicode="&#x43c;" horiz-adv-x="1792" d="M188 0v1200h368l344 -932l340 932h364v-1200h-232v948l-348 -948h-256l-348 948v-948h-232z" />
<glyph unicode="&#x43d;" d="M188 0v1200h240v-480h584v480h240v-1200h-240v504h-584v-504h-240z" />
<glyph unicode="&#x43e;" horiz-adv-x="1416" d="M100 600q0 276 169 448t439 172q276 0 442 -169t166 -451q0 -276 -169 -448t-439 -172q-276 0 -442 169t-166 451zM344 600q0 -189 99.5 -302.5t264.5 -113.5t264.5 113.5t99.5 302.5t-99.5 302.5t-264.5 113.5t-264.5 -113.5t-99.5 -302.5z" />
<glyph unicode="&#x43f;" d="M188 0v1200h1064v-1200h-240v988h-584v-988h-240z" />
<glyph unicode="&#x440;" horiz-adv-x="1448" d="M188 -400v1600h208l16 -188q73 100 178.5 154t233.5 54q237 0 380.5 -169t143.5 -451q0 -275 -146 -447.5t-378 -172.5q-123 0 -225 46.5t-171 133.5v-560h-240zM412 600q0 -189 94.5 -302.5t253.5 -113.5q158 0 251 113t93 303t-93 303t-251 113q-159 0 -253.5 -113.5 t-94.5 -302.5z" />
<glyph unicode="&#x441;" horiz-adv-x="1304" d="M100 600q0 276 166.5 448t433.5 172q197 0 341.5 -95.5t194.5 -264.5l-228 -72q-40 107 -119.5 167.5t-188.5 60.5q-164 0 -260 -113t-96 -303t96 -303t260 -113q107 0 188 61t120 167l228 -72q-50 -169 -195.5 -264.5t-340.5 -95.5q-267 0 -433.5 172t-166.5 448z" />
<glyph unicode="&#x442;" horiz-adv-x="1184" d="M40 988v212h1104v-212h-432v-988h-240v988h-432z" />
<glyph unicode="&#x443;" horiz-adv-x="1312" d="M28 1200h264l420 -1004l328 1004h248l-444 -1244q-61 -173 -164 -274.5t-248 -101.5q-87 0 -154.5 29t-108 78.5t-61 111.5t-20.5 133l220 36q-7 -172 128 -172q88 0 156 124z" />
<glyph unicode="&#x444;" horiz-adv-x="2064" d="M100 600q0 275 132.5 443.5t343.5 168.5q216 0 336 -156v544h240v-552q121 164 340 164q216 0 346 -166.5t130 -445.5q0 -274 -133.5 -443t-342.5 -169q-217 0 -340 160v-548h-240v552q-121 -164 -336 -164q-216 0 -346 166.5t-130 445.5zM344 600q0 -190 79 -303 t213 -113q132 0 210 113.5t78 302.5t-78 302.5t-210 113.5q-134 0 -213 -113t-79 -303zM1140 600q0 -190 79 -303t213 -113q132 0 212 113.5t80 302.5t-80 302.5t-212 113.5q-134 0 -213 -113t-79 -303z" />
<glyph unicode="&#x445;" horiz-adv-x="1324" d="M52 0l460 612l-436 588h284l308 -424l312 424h272l-436 -588l456 -612h-288l-324 448l-328 -448h-280z" />
<glyph unicode="&#x446;" horiz-adv-x="1468" d="M188 0v1200h240v-988h568v988h240v-988h156v-492h-228v280h-976z" />
<glyph unicode="&#x447;" horiz-adv-x="1320" d="M112 868v332h240v-332q0 -106 56.5 -153t187.5 -47h296v532h240v-1200h-240v452h-296q-232 0 -358 109.5t-126 306.5z" />
<glyph unicode="&#x448;" horiz-adv-x="2008" d="M188 0v1200h240v-988h456v988h240v-988h456v988h240v-1200h-1632z" />
<glyph unicode="&#x449;" horiz-adv-x="2052" d="M188 0v1200h240v-988h456v988h240v-988h456v988h240v-988h156v-492h-228v280h-1560z" />
<glyph unicode="&#x44a;" horiz-adv-x="1444" d="M40 980v220h568v-452h328q200 0 316 -100t116 -272q0 -171 -117 -273.5t-315 -102.5h-568v980h-328zM608 200h304q104 0 158 45.5t54 130.5t-54 130.5t-158 45.5h-304v-352z" />
<glyph unicode="&#x44b;" horiz-adv-x="1812" d="M188 0v1200h240v-452h328q200 0 316 -100t116 -272q0 -171 -117 -273.5t-315 -102.5h-568zM428 200h304q104 0 158 45.5t54 130.5t-54 130.5t-158 45.5h-304v-352zM1384 0v1200h240v-1200h-240z" />
<glyph unicode="&#x44c;" horiz-adv-x="1264" d="M188 0v1200h240v-452h328q200 0 316 -100t116 -272q0 -171 -117 -273.5t-315 -102.5h-568zM428 200h304q104 0 158 45.5t54 130.5t-54 130.5t-158 45.5h-304v-352z" />
<glyph unicode="&#x44d;" horiz-adv-x="1304" d="M68 332l216 72q39 -103 123 -161.5t197 -58.5q149 0 244 89t116 243h-512v192h508q-27 143 -120.5 225.5t-235.5 82.5q-115 0 -198 -58t-126 -162l-212 72q56 163 202 257.5t334 94.5q267 0 433.5 -172t166.5 -448t-166.5 -448t-433.5 -172q-193 0 -337.5 94t-198.5 258z " />
<glyph unicode="&#x44e;" horiz-adv-x="1944" d="M188 0v1200h240v-480h248q36 226 193 363t387 137q267 0 427.5 -169t160.5 -451q0 -276 -163.5 -448t-424.5 -172q-245 0 -401 141.5t-183 382.5h-244v-504h-240zM908 600q0 -189 94.5 -302.5t253.5 -113.5q156 0 250 113.5t94 302.5t-94 302.5t-250 113.5 q-159 0 -253.5 -113.5t-94.5 -302.5z" />
<glyph unicode="&#x44f;" horiz-adv-x="1296" d="M44 0l320 484q-115 42 -177.5 127.5t-62.5 204.5q0 175 120.5 279.5t323.5 104.5h540v-1200h-240v452h-264l-292 -452h-268zM364 820q0 -90 60 -139t168 -49h276v368h-276q-108 0 -168 -48t-60 -132z" />
<glyph unicode="&#x451;" horiz-adv-x="1364" d="M100 600q0 276 164 448t428 172t422 -169t158 -451q0 -48 -8 -76h-924q21 -158 118 -249t254 -91q235 0 356 156l164 -144q-82 -98 -212 -157t-308 -59q-145 0 -262 46.5t-193 130t-116.5 196.5t-40.5 247zM344 708h684q-24 147 -112.5 229.5t-223.5 82.5 q-139 0 -230 -83t-118 -229zM348 1368v240h260v-240h-260zM760 1368v240h260v-240h-260z" />
<glyph unicode="&#x454;" horiz-adv-x="1304" d="M100 600q0 276 166.5 448t433.5 172q197 0 342 -93t198 -259l-220 -76q-43 106 -125 165t-195 59q-142 0 -235.5 -82.5t-120.5 -225.5h508v-192h-512q21 -154 116 -243t244 -89q113 0 195 59t125 165l220 -76q-53 -166 -198 -259t-342 -93q-267 0 -433.5 172t-166.5 448z " />
<glyph unicode="&#x456;" horiz-adv-x="656" d="M196 1368v240h264v-240h-264zM208 0v1200h240v-1200h-240z" />
<glyph unicode="&#x457;" horiz-adv-x="656" d="M-8 1368v240h260v-240h-260zM208 0v1200h240v-1200h-240zM404 1368v240h260v-240h-260z" />
<glyph unicode="&#x45e;" horiz-adv-x="1312" d="M28 1200h264l420 -1004l328 1004h248l-444 -1244q-61 -173 -164 -274.5t-248 -101.5q-87 0 -154.5 29t-108 78.5t-61 111.5t-20.5 133l220 36q-7 -172 128 -172q88 0 156 124zM296 1596l188 32q9 -75 55 -115.5t121 -40.5t121 40.5t55 115.5l188 -32 q-15 -135 -111.5 -209.5t-252.5 -74.5t-252.5 74.5t-111.5 209.5z" />
<glyph unicode="&#x490;" horiz-adv-x="1288" d="M228 0v1520h772v320h244v-552h-764v-1288h-252z" />
<glyph unicode="&#x491;" horiz-adv-x="1092" d="M188 0v1200h636v320h228v-540h-624v-980h-240z" />
<glyph unicode="&#x2000;" horiz-adv-x="974" />
<glyph unicode="&#x2001;" horiz-adv-x="1948" />
<glyph unicode="&#x2002;" horiz-adv-x="974" />
<glyph unicode="&#x2003;" horiz-adv-x="1948" />
<glyph unicode="&#x2004;" horiz-adv-x="649" />
<glyph unicode="&#x2005;" horiz-adv-x="487" />
<glyph unicode="&#x2006;" horiz-adv-x="324" />
<glyph unicode="&#x2007;" horiz-adv-x="324" />
<glyph unicode="&#x2008;" horiz-adv-x="243" />
<glyph unicode="&#x2009;" horiz-adv-x="389" />
<glyph unicode="&#x200a;" horiz-adv-x="108" />
<glyph unicode="&#x2010;" horiz-adv-x="976" d="M140 564v232h696v-232h-696z" />
<glyph unicode="&#x2011;" horiz-adv-x="976" d="M140 564v232h696v-232h-696z" />
<glyph unicode="&#x2012;" horiz-adv-x="976" d="M140 564v232h696v-232h-696z" />
<glyph unicode="&#x2013;" horiz-adv-x="1296" d="M140 568v224h1016v-224h-1016z" />
<glyph unicode="&#x2014;" horiz-adv-x="1776" d="M140 568v224h1496v-224h-1496z" />
<glyph unicode="&#x2018;" horiz-adv-x="608" d="M132 1000v288q0 154 72 233t196 79h44v-148h-40q-60 0 -86 -31.5t-26 -100.5v-8h152v-312h-312z" />
<glyph unicode="&#x2019;" horiz-adv-x="608" d="M164 920v148h40q60 0 86 31.5t26 100.5v8h-152v312h312v-288q0 -154 -72 -233t-196 -79h-44z" />
<glyph unicode="&#x201a;" horiz-adv-x="640" d="M164 0v312h312v-288q0 -154 -72 -233t-196 -79h-44v148h40q60 0 86 31.5t26 100.5v8h-152z" />
<glyph unicode="&#x201c;" horiz-adv-x="1080" d="M132 1000v288q0 154 72 233t196 79h44v-148h-40q-60 0 -86 -31.5t-26 -100.5v-8h152v-312h-312zM604 1000v288q0 154 72 233t196 79h44v-148h-40q-60 0 -86 -31.5t-26 -100.5v-8h152v-312h-312z" />
<glyph unicode="&#x201d;" horiz-adv-x="1080" d="M164 920v148h40q60 0 86 31.5t26 100.5v8h-152v312h312v-288q0 -154 -72 -233t-196 -79h-44zM636 920v148h40q60 0 86 31.5t26 100.5v8h-152v312h312v-288q0 -154 -72 -233t-196 -79h-44z" />
<glyph unicode="&#x201e;" horiz-adv-x="1112" d="M164 0v312h312v-288q0 -154 -72 -233t-196 -79h-44v148h40q60 0 86 31.5t26 100.5v8h-152zM636 0v312h312v-288q0 -154 -72 -233t-196 -79h-44v148h40q60 0 86 31.5t26 100.5v8h-152z" />
<glyph unicode="&#x2022;" horiz-adv-x="1472" d="M416 680q0 138 91 229t229 91t229 -91t91 -229t-91 -229t-229 -91t-229 91t-91 229z" />
<glyph unicode="&#x2026;" horiz-adv-x="1792" d="M164 0v312h312v-312h-312zM740 0v312h312v-312h-312zM1316 0v312h312v-312h-312z" />
<glyph unicode="&#x202f;" horiz-adv-x="389" />
<glyph unicode="&#x2039;" horiz-adv-x="812" d="M144 560v240l488 344v-260l-284 -200l284 -200v-268z" />
<glyph unicode="&#x203a;" horiz-adv-x="812" d="M184 216v260l280 200l-280 200v268l488 -344v-240z" />
<glyph unicode="&#x205f;" horiz-adv-x="487" />
<glyph unicode="&#x20ac;" d="M40 524v152h136q-4 28 -4 84t4 84h-136v152h152q51 256 206.5 400t385.5 144q187 0 321.5 -91.5t210.5 -264.5l-224 -100q-43 116 -122.5 182t-185.5 66q-125 0 -215 -88t-129 -248h436v-152h-456q-4 -28 -4 -84t4 -84h456v-152h-436q39 -160 129 -248t215 -88 q106 0 185.5 66t122.5 182l224 -100q-76 -173 -210.5 -264.5t-321.5 -91.5q-230 0 -385.5 144t-206.5 400h-152z" />
<glyph unicode="&#x20bd;" horiz-adv-x="1416" d="M84 288v156h212v164h-212v156h212v756h484q243 0 385.5 -123t142.5 -333t-142.5 -333t-385.5 -123h-240v-164h556v-156h-556v-288h-244v288h-212zM540 764h176q168 0 254 68.5t86 203.5t-86 203.5t-254 68.5h-176v-544z" />
<glyph unicode="&#x2122;" horiz-adv-x="1988" d="M76 1352v168h692v-168h-256v-592h-180v592h-256zM876 760v760h256l204 -544l204 544h256v-760h-172v544l-200 -544h-176l-200 552v-552h-172z" />
<glyph unicode="&#x25fc;" horiz-adv-x="1200" d="M0 0v1200h1200v-1200h-1200z" />
</font>
</defs>
</svg>
