<?xml version="1.0" standalone="no"?>
<!DOCTYPE svg PUBLIC "-//W3C//DTD SVG 1.1//EN" "http://www.w3.org/Graphics/SVG/1.1/DTD/svg11.dtd" >
<svg xmlns="http://www.w3.org/2000/svg" xmlns:xlink="http://www.w3.org/1999/xlink" version="1.1">
<metadata></metadata>
<defs>
<font id="e-ukrainemedium" horiz-adv-x="1440" >
<font-face units-per-em="2048" ascent="1638" descent="-410" />
<missing-glyph horiz-adv-x="640" />
<glyph unicode="&#x3c;&#x433;&#x440;&#x43d;&#x3e;" d="M104 516v168h352l192 152h-544v168h712q76 70 76 144q0 64 -53 104t-139 40q-83 0 -153.5 -45t-122.5 -127l-212 144q85 135 218.5 205.5t289.5 70.5q205 0 330.5 -95.5t125.5 -244.5q0 -113 -64 -196h212v-168h-364l-188 -152h552v-168h-716q-76 -57 -76 -136 q0 -72 55 -110t157 -38q177 0 296 172l220 -148q-87 -133 -233.5 -204.5t-306.5 -71.5q-205 0 -336.5 92t-131.5 248q0 112 72 196h-220z" />
<glyph horiz-adv-x="0" />
<glyph horiz-adv-x="682" />
<glyph unicode="&#xd;" horiz-adv-x="640" />
<glyph unicode=" "  horiz-adv-x="640" />
<glyph unicode="&#x09;" horiz-adv-x="640" />
<glyph unicode="&#xa0;" horiz-adv-x="640" />
<glyph unicode="!" horiz-adv-x="756" d="M200 0v352h352v-352h-352zM212 1520h328l-44 -988h-240z" />
<glyph unicode="&#x22;" horiz-adv-x="996" d="M116 1520h296l-28 -572h-244zM584 1520h300l-32 -572h-240z" />
<glyph unicode="#" d="M92 336v272h236v304h-236v272h236v336h240v-336h304v336h240v-336h236v-272h-236v-304h236v-272h-236v-336h-240v336h-304v-336h-240v336h-236zM568 608h304v304h-304v-304z" />
<glyph unicode="$" horiz-adv-x="1420" d="M76 200l172 212q151 -139 380 -172v412q-62 18 -108.5 34t-101 39.5t-93.5 48t-77.5 58.5t-62.5 72t-38.5 88t-14.5 108q0 185 133.5 301.5t362.5 134.5v144h160v-144q266 -17 480 -184l-160 -216q-146 121 -320 144v-400q100 -27 174 -54t141.5 -64.5t109.5 -81.5 t66.5 -103.5t24.5 -132.5q0 -195 -136.5 -317t-379.5 -143v-160h-160v156q-160 9 -302.5 65.5t-249.5 154.5zM412 1112q0 -66 51.5 -107.5t164.5 -76.5v356q-106 -9 -161 -54t-55 -118zM788 240q108 12 166 58.5t58 121.5q0 66 -48.5 105.5t-175.5 78.5v-364z" />
<glyph unicode="%" horiz-adv-x="2172" d="M104 1080q0 211 112 335.5t304 124.5t304 -124.5t112 -335.5t-112 -335.5t-304 -124.5t-304 124.5t-112 335.5zM324 1080q0 -123 53 -195.5t143 -72.5t143 72.5t53 195.5t-53 195.5t-143 72.5t-143 -72.5t-53 -195.5zM500 0l964 1520h208l-964 -1520h-208zM1232 440 q0 210 114 335t306 125t304 -124.5t112 -335.5t-112 -335.5t-304 -124.5t-306 125t-114 335zM1456 440q0 -123 53 -195.5t143 -72.5t143 72.5t53 195.5t-53 195.5t-143 72.5t-143 -72.5t-53 -195.5z" />
<glyph unicode="&#x26;" horiz-adv-x="1928" d="M88 412q0 146 86.5 249t273.5 171q-81 99 -116.5 179t-35.5 161q0 163 126.5 265.5t329.5 102.5q216 0 342 -100t126 -252q0 -132 -97.5 -248t-274.5 -184q209 -201 308 -284q129 159 172 388l260 -60q-61 -286 -232 -488q126 -88 192 -88q97 0 116 168l232 -52 q-12 -174 -99 -267t-237 -93q-177 0 -392 164q-233 -164 -520 -164q-259 0 -409.5 115.5t-150.5 316.5zM380 412q0 -87 79.5 -139.5t208.5 -52.5q159 0 304 88q-168 155 -360 352q-232 -77 -232 -248zM560 1144q0 -50 31.5 -103t104.5 -129q132 47 192 107.5t60 140.5 q0 73 -53.5 118.5t-142.5 45.5q-84 0 -138 -51t-54 -129z" />
<glyph unicode="'" horiz-adv-x="528" d="M116 1520h296l-28 -572h-244z" />
<glyph unicode="(" horiz-adv-x="972" d="M176 684q0 327 153 587.5t423 392.5l120 -160q-187 -138 -287.5 -350.5t-100.5 -469.5q0 -259 100.5 -470.5t287.5 -353.5l-124 -156q-267 132 -419.5 392.5t-152.5 587.5z" />
<glyph unicode=")" horiz-adv-x="920" d="M116 -140q187 142 287.5 353.5t100.5 470.5q0 257 -100.5 469.5t-287.5 350.5l120 160q270 -132 423 -392.5t153 -587.5t-152.5 -587.5t-419.5 -392.5z" />
<glyph unicode="*" horiz-adv-x="988" d="M92 1244l52 164l264 -84v276h172v-276l264 84l52 -168l-264 -84l164 -224l-140 -96l-160 220l-164 -220l-140 96l164 224z" />
<glyph unicode="+" d="M172 644v232h428v432h240v-432h428v-232h-428v-432h-240v432h-428z" />
<glyph unicode="," horiz-adv-x="688" d="M168 0v352h352v-300q0 -174 -80 -261t-220 -87h-52v156h36q68 0 100.5 33.5t35.5 106.5h-172z" />
<glyph unicode="-" horiz-adv-x="996" d="M140 544v272h716v-272h-716z" />
<glyph unicode="." horiz-adv-x="688" d="M168 0v352h352v-352h-352z" />
<glyph unicode="/" horiz-adv-x="992" d="M-80 -80l888 1680h264l-888 -1680h-264z" />
<glyph unicode="0" d="M100 760q0 357 167.5 568.5t452.5 211.5t452.5 -211.5t167.5 -568.5t-167.5 -568.5t-452.5 -211.5t-452.5 211.5t-167.5 568.5zM392 760q0 -252 87.5 -396t240.5 -144t240.5 144t87.5 396t-87.5 396t-240.5 144t-240.5 -144t-87.5 -396z" />
<glyph unicode="1" horiz-adv-x="976" d="M76 1024v236h68q194 0 265.5 53t86.5 207h216v-1520h-288v1024h-348z" />
<glyph unicode="2" horiz-adv-x="1272" d="M68 0v188l536 468q143 122 201.5 219t58.5 197q0 102 -66 165t-174 63q-127 0 -200.5 -79t-79.5 -237l-272 48q18 237 172 374t400 134q228 -3 370 -126t142 -318q0 -86 -24.5 -161t-83.5 -153.5t-135.5 -153.5t-200.5 -180l-236 -200h708v-248h-1116z" />
<glyph unicode="3" horiz-adv-x="1268" d="M20 324l216 128q54 -115 143 -175.5t205 -60.5q141 0 222.5 73t81.5 199q0 114 -71.5 183t-188.5 69q-79 0 -152 -40l-132 152l420 416h-676v252h1028v-212l-376 -372q192 -12 310 -138t118 -318q0 -216 -161.5 -358t-410.5 -142q-204 0 -355.5 91t-220.5 253z" />
<glyph unicode="4" horiz-adv-x="1352" d="M64 360v236l668 924h348v-912h232v-248h-232v-360h-268v360h-748zM352 608h460v632z" />
<glyph unicode="5" horiz-adv-x="1292" d="M68 260l184 152q52 -86 144 -139t200 -53q138 0 223 79.5t85 208.5t-80 206.5t-212 77.5q-84 0 -153.5 -35t-114.5 -101l-208 76l68 788h876v-260h-652l-28 -332q111 80 276 80q219 0 365.5 -144.5t146.5 -363.5q0 -231 -161.5 -375.5t-422.5 -144.5q-179 0 -321 75 t-215 205z" />
<glyph unicode="6" horiz-adv-x="1364" d="M124 744q0 169 40 312t117.5 252t201 170.5t281.5 61.5q147 0 276.5 -54.5t211.5 -157.5l-196 -176q-44 71 -120.5 109.5t-167.5 38.5q-99 0 -174 -40.5t-119.5 -112t-68 -159.5t-26.5 -192q140 184 400 184q230 0 371 -132.5t141 -355.5q0 -147 -74.5 -265 t-201.5 -182.5t-280 -64.5q-151 0 -269 59t-192 163t-112.5 241.5t-38.5 300.5zM444 488q0 -123 79.5 -199.5t208.5 -76.5q123 0 205.5 76.5t82.5 199.5q0 125 -78.5 198.5t-205.5 73.5q-128 0 -210 -74t-82 -198z" />
<glyph unicode="7" horiz-adv-x="1188" d="M48 1260v260h1108v-220q-239 -223 -375.5 -567.5t-136.5 -732.5h-288q0 355 135 695.5t353 564.5h-796z" />
<glyph unicode="8" horiz-adv-x="1360" d="M104 412q0 125 67.5 219t192.5 149q-103 52 -159.5 137t-56.5 195q0 197 144 312.5t388 115.5t388 -115.5t144 -312.5q0 -110 -56.5 -195t-159.5 -137q125 -55 192.5 -149t67.5 -219q0 -196 -156.5 -314t-419.5 -118t-419.5 118t-156.5 314zM388 436q0 -108 78.5 -172 t213.5 -64t213.5 64t78.5 172q0 107 -78 167.5t-214 60.5t-214 -60.5t-78 -167.5zM412 1096q0 -102 72.5 -161t195.5 -59t195.5 59t72.5 161t-72.5 163t-195.5 61t-195.5 -61t-72.5 -163z" />
<glyph unicode="9" horiz-adv-x="1364" d="M68 1028q0 147 74.5 265t201.5 182.5t280 64.5q152 0 271 -59t193.5 -163t113 -241.5t38.5 -300.5q0 -169 -40 -312t-117.5 -252t-201 -170.5t-281.5 -61.5q-150 0 -277.5 54.5t-210.5 157.5l196 176q44 -71 120.5 -109.5t167.5 -38.5q99 0 174.5 40.5t120.5 112t68 161 t25 194.5q-63 -90 -167.5 -139t-236.5 -49q-228 0 -370 132.5t-142 355.5zM344 1032q0 -124 77.5 -198t202.5 -74q129 0 212.5 74t83.5 198q0 122 -80.5 199t-207.5 77q-125 0 -206.5 -76t-81.5 -200z" />
<glyph unicode=":" horiz-adv-x="672" d="M160 0v352h352v-352h-352zM160 848v352h352v-352h-352z" />
<glyph unicode=";" horiz-adv-x="672" d="M160 0v352h352v-300q0 -174 -80 -261t-220 -87h-52v156h36q68 0 98.5 33.5t33.5 106.5h-168zM160 848v352h352v-352h-352z" />
<glyph unicode="&#x3c;" d="M172 648v224l1096 440v-248l-756 -300l756 -300v-256z" />
<glyph unicode="=" d="M172 364v228h1096v-228h-1096zM172 928v228h1096v-228h-1096z" />
<glyph unicode="&#x3e;" d="M172 208v248l756 300l-756 300v256l1096 -440v-224z" />
<glyph unicode="?" horiz-adv-x="1264" d="M68 1052q21 222 174 355t390 133q228 0 368 -117.5t140 -306.5q0 -117 -55 -207.5t-181 -180.5q-88 -61 -126 -107.5t-38 -96.5v-12h-248q-6 105 33.5 173t162.5 167q99 78 131.5 126.5t32.5 117.5q0 95 -60.5 149.5t-163.5 54.5q-124 0 -202 -80t-90 -220zM448 0v352 h348v-352h-348z" />
<glyph unicode="@" horiz-adv-x="1744" d="M104 412q0 175 60 325t166.5 256.5t260 166.5t333.5 60q277 0 452.5 -139.5t175.5 -360.5v-400q0 -72 68 -72h48v-248q-43 -9 -104 -4q-112 0 -170.5 43t-73.5 141q-60 -90 -167.5 -143t-232.5 -53q-176 0 -286 97t-110 251q0 89 34 156.5t100.5 113t151.5 73.5t198 45 q174 21 209 33q46 15 50 49q1 5 1 10q0 81 -99 138.5t-261 57.5q-264 0 -424 -163t-160 -433q0 -282 168 -445t456 -163q209 0 368 104l96 -192q-213 -116 -464 -116q-384 0 -614 221.5t-230 590.5zM788 356q0 -69 46.5 -108.5t125.5 -39.5q129 0 220.5 75.5t91.5 180.5v128 q-50 -23 -216 -52q-140 -23 -204 -62.5t-64 -121.5z" />
<glyph unicode="A" horiz-adv-x="1624" d="M24 0l600 1520h376l600 -1520h-328l-120 320h-688l-120 -320h-320zM564 588h488l-244 660z" />
<glyph unicode="B" horiz-adv-x="1532" d="M212 0v1520h700q227 0 357.5 -108.5t130.5 -295.5q0 -113 -51 -201t-145 -139q109 -51 166.5 -143t57.5 -217q0 -193 -134 -304.5t-370 -111.5h-712zM508 252h360q129 0 192.5 49t63.5 151q0 204 -256 204h-360v-404zM508 900h356q236 0 236 184t-236 184h-356v-368z" />
<glyph unicode="C" horiz-adv-x="1556" d="M104 760q0 172 53.5 317.5t149 247t231.5 158.5t298 57q244 0 415 -116t237 -328l-288 -104q-45 143 -138.5 215.5t-229.5 72.5q-190 0 -303 -140.5t-113 -379.5q0 -240 112 -380t304 -140q136 0 229.5 72.5t138.5 215.5l288 -104q-66 -208 -238 -326t-414 -118 q-331 0 -531.5 213.5t-200.5 566.5z" />
<glyph unicode="D" horiz-adv-x="1656" d="M212 0v1520h580q361 0 560.5 -205t199.5 -555q0 -224 -90 -395.5t-263 -268t-407 -96.5h-580zM520 260h264q217 0 334.5 133t117.5 367t-117.5 367t-334.5 133h-264v-1000z" />
<glyph unicode="E" horiz-adv-x="1392" d="M212 0v1520h1080v-272h-776v-336h596v-264h-596v-376h796v-272h-1100z" />
<glyph unicode="F" horiz-adv-x="1340" d="M212 0v1520h1080v-272h-772v-360h592v-260h-592v-628h-308z" />
<glyph unicode="G" horiz-adv-x="1680" d="M104 756q0 232 93.5 410t267.5 276t403 98t397.5 -105t246.5 -299l-280 -108q-48 121 -144.5 186.5t-227.5 65.5q-204 0 -324 -140t-120 -380q0 -242 115 -381t313 -139q146 0 256 83.5t148 240.5h-364v220h652v-784h-228l-20 216q-168 -236 -480 -236q-318 0 -511 212.5 t-193 563.5z" />
<glyph unicode="H" horiz-adv-x="1720" d="M212 0v1520h308v-600h680v600h308v-1520h-308v640h-680v-640h-308z" />
<glyph unicode="I" horiz-adv-x="732" d="M212 0v1520h308v-1520h-308z" />
<glyph unicode="J" horiz-adv-x="1156" d="M-8 324l252 104q44 -184 212 -184q93 0 146.5 59.5t53.5 164.5v1052h308v-1044q0 -228 -136 -362t-364 -134q-177 0 -302 91t-170 253z" />
<glyph unicode="K" horiz-adv-x="1612" d="M212 0v1520h308v-676l648 676h384l-604 -604l636 -916h-368l-484 700l-212 -212v-488h-308z" />
<glyph unicode="L" horiz-adv-x="1348" d="M212 0v1520h308v-1240h768v-280h-1076z" />
<glyph unicode="M" horiz-adv-x="2192" d="M212 0v1520h460l424 -1152l428 1152h452v-1520h-300v1132l-420 -1132h-320l-424 1144v-1144h-300z" />
<glyph unicode="N" horiz-adv-x="1736" d="M212 0v1520h296l720 -1024v1024h296v-1520h-288l-728 1028v-1028h-296z" />
<glyph unicode="O" horiz-adv-x="1696" d="M104 760q0 172 54 317.5t151 247t236 158.5t303 57q339 0 543.5 -213t204.5 -567q0 -172 -55 -317.5t-152.5 -247t-236.5 -158.5t-304 -57q-336 0 -540 213t-204 567zM416 760q0 -233 118 -372.5t314 -139.5t314 139.5t118 372.5t-118 372.5t-314 139.5t-314 -139.5 t-118 -372.5z" />
<glyph unicode="P" horiz-adv-x="1492" d="M212 0v1520h644q263 0 413.5 -128.5t150.5 -351.5q0 -225 -150 -352.5t-414 -127.5h-336v-560h-308zM520 808h300q141 0 214.5 56.5t73.5 167.5q0 228 -288 228h-300v-452z" />
<glyph unicode="Q" horiz-adv-x="1696" d="M104 760q0 172 54 317.5t151 247t236 158.5t303 57q339 0 543.5 -213t204.5 -567q0 -305 -162.5 -512.5t-433.5 -255.5v-60q0 -104 116 -104q128 0 188 4v-232q-128 -8 -208 -8q-188 0 -280 82.5t-92 269.5v44q-284 39 -452 246t-168 526zM416 760q0 -233 118 -372.5 t314 -139.5t314 139.5t118 372.5t-118 372.5t-314 139.5t-314 -139.5t-118 -372.5z" />
<glyph unicode="R" horiz-adv-x="1576" d="M212 0v1520h656q262 0 411 -125t149 -347q0 -157 -76 -267t-216 -165l372 -616h-344l-336 572h-312v-572h-304zM516 816h328q134 0 203 57.5t69 166.5q0 108 -68.5 164t-203.5 56h-328v-444z" />
<glyph unicode="S" horiz-adv-x="1392" d="M60 200l172 232q194 -188 480 -188q139 0 217.5 46t78.5 130q0 31 -14 55t-34.5 41t-66.5 35.5t-85 30.5t-116 34q-50 14 -81.5 23.5t-80 25.5t-80.5 29.5t-74.5 33t-70.5 40t-60 46.5t-52.5 55.5t-38.5 64t-26 75.5t-8 87q0 206 161 325t435 119q319 0 568 -184 l-168 -228q-84 69 -191.5 106.5t-224.5 37.5q-126 0 -201 -44t-75 -116q0 -71 77.5 -115t258.5 -93q70 -19 122 -34.5t114 -39.5t106 -48.5t87.5 -59.5t70.5 -74.5t43.5 -91.5t16.5 -112q0 -219 -164.5 -341.5t-455.5 -122.5q-186 0 -353 57.5t-287 162.5z" />
<glyph unicode="T" horiz-adv-x="1436" d="M40 1240v280h1356v-280h-524v-1240h-308v1240h-524z" />
<glyph unicode="U" horiz-adv-x="1716" d="M192 608v912h308v-904q0 -171 94 -267.5t262 -96.5q170 0 263 96t93 268v904h308v-912q0 -289 -178 -458.5t-486 -169.5q-306 0 -485 170t-179 458z" />
<glyph unicode="V" horiz-adv-x="1584" d="M44 1520h328l424 -1224l424 1224h324l-556 -1520h-388z" />
<glyph unicode="W" horiz-adv-x="2280" d="M64 1520h312l300 -1108l312 1108h304l312 -1104l308 1104h308l-440 -1520h-324l-320 1108l-316 -1108h-320z" />
<glyph unicode="X" horiz-adv-x="1544" d="M32 0l560 780l-528 740h352l360 -512l364 512h340l-524 -736l556 -784h-352l-392 556l-384 -556h-352z" />
<glyph unicode="Y" horiz-adv-x="1532" d="M16 1520h348l404 -644l404 644h344l-596 -920v-600h-308v600z" />
<glyph unicode="Z" horiz-adv-x="1412" d="M84 0v232l840 1012h-796v276h1192v-232l-840 -1012h840v-276h-1236z" />
<glyph unicode="[" horiz-adv-x="972" d="M212 -240v1840h608v-248h-328v-1344h328v-248h-608z" />
<glyph unicode="\" horiz-adv-x="992" d="M-80 1600h264l888 -1680h-264z" />
<glyph unicode="]" horiz-adv-x="960" d="M220 8h328v1344h-328v248h608v-1840h-608v248z" />
<glyph unicode="^" d="M192 760l392 760h272l392 -760h-256l-272 540l-276 -540h-252z" />
<glyph unicode="_" horiz-adv-x="1088" d="M28 24h1032v-264h-1032v264z" />
<glyph unicode="`" horiz-adv-x="640" d="M4 1608h320l120 -304h-200z" />
<glyph unicode="a" horiz-adv-x="1312" d="M76 332q0 63 17 116t44.5 90t70.5 67t85 48.5t98 33.5t100 22.5t101 14.5q44 6 73.5 10.5t61.5 11.5t52 15.5t37 20t24.5 27t7.5 35.5q0 64 -62.5 102t-169.5 38q-192 0 -340 -148l-172 180q216 204 528 204q227 0 355.5 -106.5t128.5 -293.5v-500q0 -72 72 -72h48v-248 q-40 -8 -104 -8q-111 0 -170 44t-74 140q-67 -91 -178 -143.5t-242 -52.5q-175 0 -283.5 97t-108.5 255zM356 356q0 -69 45.5 -108.5t126.5 -39.5q129 0 220.5 75.5t91.5 180.5v124q-51 -30 -216 -56q-134 -24 -180 -45q-88 -41 -88 -131z" />
<glyph unicode="b" horiz-adv-x="1448" d="M172 0v1600h288v-560q69 87 168 133.5t216 46.5q234 0 375 -169t141 -451q0 -278 -143.5 -449t-372.5 -171q-253 0 -400 192l-16 -172h-256zM448 600q0 -175 82.5 -277.5t225.5 -102.5q144 0 228 103t84 277t-84 277t-228 103q-143 0 -225.5 -102.5t-82.5 -277.5z" />
<glyph unicode="c" horiz-adv-x="1300" d="M88 600q0 278 169 449t443 171q203 0 350 -95.5t198 -264.5l-276 -84q-33 97 -104 150.5t-172 53.5q-144 0 -228 -103t-84 -277t84 -277t228 -103q100 0 171.5 53t108.5 151l272 -84q-51 -169 -198 -264.5t-350 -95.5q-274 0 -443 171t-169 449z" />
<glyph unicode="d" horiz-adv-x="1448" d="M88 600q0 278 143.5 449t372.5 171q243 0 384 -172v552h288v-1600h-256l-16 180q-69 -97 -172 -148.5t-228 -51.5q-234 0 -375 169t-141 451zM380 600q0 -174 84 -277t228 -103q143 0 225.5 102.5t82.5 277.5t-82.5 277.5t-225.5 102.5q-144 0 -228 -103t-84 -277z" />
<glyph unicode="e" horiz-adv-x="1364" d="M88 600q0 277 166 448.5t438 171.5q267 0 427.5 -169t160.5 -451q0 -52 -12 -92h-892q21 -136 108.5 -212t227.5 -76q217 0 340 144l180 -172q-185 -212 -520 -212q-201 0 -343.5 81.5t-211.5 219.5t-69 319zM380 720h608q-24 129 -101.5 198.5t-194.5 69.5 q-125 0 -206.5 -70.5t-105.5 -197.5z" />
<glyph unicode="f" horiz-adv-x="968" d="M52 960v240h244v60q0 171 111 273.5t297 102.5q203 0 356 -104l-132 -212q-108 76 -220 76q-60 0 -92 -34.5t-32 -97.5v-64h336v-240h-336v-960h-288v960h-244z" />
<glyph unicode="g" horiz-adv-x="1448" d="M88 640q0 260 144 420t376 160q126 0 228.5 -46.5t171.5 -133.5l12 160h256l-4 -1052q0 -261 -160.5 -414.5t-447.5 -153.5q-330 0 -500 164l136 200q76 -64 162 -94t198 -30q175 0 257.5 87t82.5 237v96q-70 -86 -170.5 -133t-221.5 -47q-236 0 -378 159t-142 421z M380 636q0 -162 84 -257t228 -95q143 0 225.5 94.5t82.5 257.5q0 159 -82 251.5t-226 92.5q-143 0 -227.5 -93.5t-84.5 -250.5z" />
<glyph unicode="h" horiz-adv-x="1436" d="M172 0v1600h288v-556q70 83 172 129.5t220 46.5q193 0 312.5 -127t119.5 -333v-760h-288v692q0 137 -61.5 212.5t-170.5 75.5q-128 0 -216 -82.5t-88 -209.5v-688h-288z" />
<glyph unicode="i" horiz-adv-x="676" d="M180 1360v256h312v-256h-312zM192 0v1200h288v-1200h-288z" />
<glyph unicode="j" horiz-adv-x="664" d="M0 -144q32 -4 96 -4q50 0 79 27.5t29 80.5v1240h288v-1236q0 -195 -92 -283.5t-272 -88.5q-48 0 -128 8v256zM192 1360v256h312v-256h-312z" />
<glyph unicode="k" horiz-adv-x="1344" d="M172 0v1600h288v-904l492 504h360l-488 -472l508 -728h-344l-364 528l-164 -156v-372h-288z" />
<glyph unicode="l" horiz-adv-x="636" d="M172 0v1600h288v-1600h-288z" />
<glyph unicode="m" horiz-adv-x="2208" d="M172 0v1200h256l16 -168q64 89 166.5 138.5t229.5 49.5q128 0 224 -59.5t144 -168.5q64 107 174.5 167.5t249.5 60.5q189 0 304.5 -126.5t115.5 -333.5v-760h-288v692q0 139 -56.5 213.5t-163.5 74.5q-126 0 -207 -81.5t-81 -210.5v-688h-288v692q0 139 -56.5 213.5 t-163.5 74.5q-126 0 -207 -81.5t-81 -210.5v-688h-288z" />
<glyph unicode="n" d="M172 0v1200h256l16 -176q67 91 174 143.5t234 52.5q193 0 314.5 -127t121.5 -333v-760h-288v692q0 137 -62 212.5t-174 75.5q-128 0 -216 -82.5t-88 -209.5v-688h-288z" />
<glyph unicode="o" horiz-adv-x="1416" d="M88 600q0 278 171.5 449t448.5 171q282 0 451 -169t169 -451q0 -278 -171.5 -449t-448.5 -171q-282 0 -451 169t-169 451zM384 600q0 -177 87 -278.5t237 -101.5t237 101.5t87 278.5t-87 278.5t-237 101.5t-237 -101.5t-87 -278.5z" />
<glyph unicode="p" horiz-adv-x="1448" d="M172 -400v1600h256l16 -180q69 97 172 148.5t228 51.5q234 0 375 -169t141 -451q0 -278 -143.5 -449t-372.5 -171q-243 0 -384 172v-552h-288zM448 600q0 -175 82.5 -277.5t225.5 -102.5q144 0 228 103t84 277t-84 277t-228 103q-143 0 -225.5 -102.5t-82.5 -277.5z" />
<glyph unicode="q" horiz-adv-x="1448" d="M88 600q0 278 143.5 449t372.5 171q253 0 400 -192l16 172h256v-1600h-288v560q-69 -87 -168 -133.5t-216 -46.5q-234 0 -375 169t-141 451zM380 600q0 -174 84 -277t228 -103q143 0 225.5 102.5t82.5 277.5t-82.5 277.5t-225.5 102.5q-144 0 -228 -103t-84 -277z" />
<glyph unicode="r" horiz-adv-x="996" d="M172 0v1200h256l16 -188q67 97 172 150.5t236 53.5q36 0 100 -8l-4 -272q-90 12 -176 12q-142 0 -227 -75t-85 -213v-660h-288z" />
<glyph unicode="s" horiz-adv-x="1152" d="M44 164l152 204q157 -144 392 -144q98 0 159 28.5t61 83.5q0 47 -55 78t-209 66q-234 57 -339 146t-105 230q0 165 133.5 264.5t358.5 99.5q256 0 472 -148l-152 -212q-156 120 -344 120q-88 0 -140 -28.5t-52 -79.5q0 -49 50 -80.5t186 -63.5q259 -63 365.5 -148.5 t106.5 -231.5q0 -174 -133.5 -271t-370.5 -97q-161 0 -300 48t-236 136z" />
<glyph unicode="t" horiz-adv-x="1012" d="M44 960v240h240l32 320h256v-320h352v-240h-352v-568q0 -81 39.5 -114.5t120.5 -33.5q107 0 192 20v-256q-112 -32 -256 -32q-185 0 -284.5 90t-99.5 262v632h-240z" />
<glyph unicode="u" d="M152 440v760h288v-692q0 -137 62 -212.5t174 -75.5q128 0 216 82.5t88 209.5v688h288v-1200h-256l-16 176q-67 -91 -174 -143.5t-234 -52.5q-193 0 -314.5 127t-121.5 333z" />
<glyph unicode="v" horiz-adv-x="1336" d="M32 1200h312l332 -916l324 916h308l-464 -1200h-352z" />
<glyph unicode="w" horiz-adv-x="1928" d="M52 1200h296l236 -892l248 892h268l248 -896l240 896h288l-356 -1200h-320l-240 816l-228 -816h-320z" />
<glyph unicode="x" horiz-adv-x="1348" d="M44 0l444 608l-424 592h332l280 -396l288 396h320l-424 -592l444 -608h-340l-292 416l-292 -416h-336z" />
<glyph unicode="y" horiz-adv-x="1348" d="M28 1200h316l384 -948l296 948h300l-428 -1216q-68 -194 -180.5 -299t-267.5 -105q-80 0 -144.5 21t-106.5 55.5t-71 82.5t-42 99.5t-16 109.5l264 48q3 -79 31 -121.5t93 -42.5q73 0 132 100z" />
<glyph unicode="z" horiz-adv-x="1192" d="M76 0v224l660 736h-624v240h988v-224l-656 -732h668v-244h-1036z" />
<glyph unicode="{" horiz-adv-x="972" d="M120 556v248h60q58 0 85 36.5t27 119.5v364q0 133 71 204.5t205 71.5h244v-248h-172q-34 0 -53 -18.5t-19 -53.5v-324q0 -101 -37.5 -172t-106.5 -104q69 -33 106.5 -104t37.5 -172v-324q0 -35 19 -53.5t53 -18.5h172v-248h-244q-134 0 -205 71.5t-71 204.5v364 q0 83 -27 119.5t-85 36.5h-60z" />
<glyph unicode="|" horiz-adv-x="708" d="M212 -240v1840h280v-1840h-280z" />
<glyph unicode="}" horiz-adv-x="920" d="M68 8h172q34 0 53 18.5t19 53.5v324q0 101 37.5 172t106.5 104q-69 33 -106.5 104t-37.5 172v324q0 35 -19 53.5t-53 18.5h-172v248h244q134 0 205 -71.5t71 -204.5v-364q0 -83 27 -119.5t85 -36.5h60v-248h-60q-58 0 -85 -36.5t-27 -119.5v-364q0 -133 -71 -204.5 t-205 -71.5h-244v248z" />
<glyph unicode="~" d="M104 704q20 39 48.5 76.5t74.5 81.5t111 71t138 27q62 0 119 -17.5t101 -42t85.5 -49t88.5 -42t94 -17.5q53 0 105.5 39.5t90.5 112.5l172 -124q-18 -38 -46.5 -76.5t-73.5 -82t-110 -70.5t-138 -27q-62 0 -119 17t-101 41t-85.5 48t-88.5 41t-94 17q-53 0 -105.5 -39.5 t-90.5 -112.5z" />
<glyph unicode="&#xa2;" horiz-adv-x="1308" d="M88 760q0 251 140 416.5t372 195.5v148h172v-144q179 -15 305 -110.5t171 -253.5l-260 -84q-27 81 -82.5 133.5t-133.5 70.5v-744q77 18 133.5 69.5t86.5 130.5l256 -80q-45 -158 -171 -253.5t-305 -110.5v-144h-172v148q-232 30 -372 195.5t-140 416.5zM368 760 q0 -143 61.5 -240.5t170.5 -127.5v736q-109 -30 -170.5 -127.5t-61.5 -240.5z" />
<glyph unicode="&#xa3;" d="M24 240q0 124 80 194t212 70q71 0 144 -20q-11 103 -56 192h-280v168h192q-76 152 -76 280q0 190 137.5 303t370.5 113q215 0 351.5 -109.5t164.5 -290.5l-264 -72q-18 115 -85 175.5t-171 60.5q-98 0 -161 -55t-63 -149q0 -39 14 -88t25.5 -77t40.5 -91h368v-168h-300 q36 -108 36 -204q0 -40 -8 -104q5 -3 34.5 -23t36 -24t32 -20.5t35 -21t31.5 -16.5t34.5 -15.5t31.5 -9.5t35.5 -8t33.5 -2q109 0 116 180l256 -32q-9 -205 -92 -300.5t-244 -95.5q-119 0 -217.5 49t-202.5 135q-55 -86 -136 -135t-172 -49q-128 0 -206 72.5t-78 187.5z M204 244q0 -37 29.5 -58.5t70.5 -21.5q113 0 144 124q-69 44 -136 44q-51 0 -79.5 -23t-28.5 -65z" />
<glyph unicode="&#xa5;" horiz-adv-x="1544" d="M12 1520h352l404 -640l400 640h344l-496 -764h212v-168h-312v-152h312v-168h-312v-268h-308v268h-292v168h292v152h-292v168h192z" />
<glyph unicode="&#xa8;" horiz-adv-x="640" d="M-20 1360v256h300v-256h-300zM424 1360v256h300v-256h-300z" />
<glyph unicode="&#xa9;" horiz-adv-x="1764" d="M104 760q0 167 58.5 312t161.5 248t248 161.5t312 58.5t312 -58.5t248 -161.5t161.5 -248t58.5 -312t-58.5 -312t-161.5 -248t-248 -161.5t-312 -58.5t-312 58.5t-248 161.5t-161.5 248t-58.5 312zM268 760q0 -178 78.5 -319.5t219 -221t318.5 -79.5q176 0 315.5 79.5 t218 221t78.5 319.5t-78.5 319.5t-218 221t-315.5 79.5q-178 0 -318.5 -79.5t-219 -221t-78.5 -319.5zM480 760q0 190 114 307t302 117q135 0 233.5 -65t134.5 -179l-212 -76q-40 120 -156 120q-87 0 -137.5 -59.5t-50.5 -164.5t50.5 -164.5t137.5 -59.5q116 0 156 120 l212 -76q-36 -114 -134.5 -179t-233.5 -65q-188 0 -302 117t-114 307z" />
<glyph unicode="&#xab;" horiz-adv-x="1344" d="M120 540v280l500 340v-300l-256 -176l256 -180v-304zM684 540v280l500 340v-300l-256 -176l256 -180v-304z" />
<glyph unicode="&#xad;" horiz-adv-x="996" d="M140 544v272h716v-272h-716z" />
<glyph unicode="&#xae;" horiz-adv-x="1084" d="M144 1140q0 174 113 287t287 113t287 -113t113 -287t-113 -287t-287 -113t-287 113t-113 287zM252 1140q0 -129 81.5 -210.5t210.5 -81.5q127 0 209.5 82t82.5 210t-82.5 210t-209.5 82q-129 0 -210.5 -81.5t-81.5 -210.5zM376 940v408h196q64 0 106 -34t42 -90 q0 -76 -60 -100q40 -13 40 -60v-4q0 -20 20 -20h4v-100h-56q-39 0 -61.5 22.5t-22.5 61.5v16q0 18 -7 25t-25 7h-60v-132h-116zM492 1172h64q44 0 44 36q0 12 -12 20t-32 8h-64v-64z" />
<glyph unicode="&#xb4;" horiz-adv-x="640" d="M260 1304l120 304h320l-240 -304h-200z" />
<glyph unicode="&#xb8;" horiz-adv-x="640" d="M112 -360l76 128q87 -64 180 -64q51 0 79.5 14t28.5 38t-21 38t-55 14q-48 0 -80 -24l-116 64l104 176h172l-64 -100h36q91 0 149.5 -47t58.5 -121q0 -87 -79 -141.5t-205 -54.5q-147 0 -264 80z" />
<glyph unicode="&#xbb;" horiz-adv-x="1344" d="M160 200v300l256 176l-256 180v304l500 -340v-280zM724 200v300l256 176l-256 180v304l500 -340v-280z" />
<glyph unicode="&#x2c6;" horiz-adv-x="640" d="M-36 1304l252 304h288l248 -304h-244l-148 152l-152 -152h-244z" />
<glyph unicode="&#x2da;" horiz-adv-x="640" d="M64 1588q0 123 82.5 203.5t205.5 80.5t205.5 -80.5t82.5 -203.5q0 -125 -82 -204.5t-206 -79.5t-206 79.5t-82 204.5zM240 1588q0 -51 32 -83.5t80 -32.5t80 32.5t32 83.5q0 48 -32 80t-80 32t-80 -32t-32 -80z" />
<glyph unicode="&#x2dc;" horiz-adv-x="640" d="M-36 1412q32 99 100.5 153.5t151.5 54.5q51 0 101 -25t90 -50t69 -25q74 0 108 96l168 -88q-32 -100 -99 -154t-153 -54q-53 0 -103.5 25t-91 50t-69.5 25q-36 0 -61 -22.5t-43 -73.5z" />
<glyph unicode="&#x401;" horiz-adv-x="1392" d="M212 0v1520h1080v-272h-776v-336h596v-264h-596v-376h796v-272h-1100zM392 1680v256h300v-256h-300zM836 1680v256h300v-256h-300z" />
<glyph unicode="&#x404;" horiz-adv-x="1556" d="M104 760q0 230 90.5 407t257.5 275t384 98q244 0 415.5 -114t240.5 -326l-280 -100q-45 135 -141.5 207.5t-234.5 72.5q-162 0 -270.5 -99.5t-141.5 -276.5h568v-248h-576q24 -198 133.5 -307t286.5 -109q138 0 234.5 72.5t141.5 207.5l280 -100q-69 -208 -241.5 -324 t-414.5 -116q-333 0 -532.5 213t-199.5 567z" />
<glyph unicode="&#x406;" horiz-adv-x="732" d="M212 0v1520h308v-1520h-308z" />
<glyph unicode="&#x407;" horiz-adv-x="732" d="M-4 1680v256h300v-256h-300zM212 0v1520h308v-1520h-308zM440 1680v256h300v-256h-300z" />
<glyph unicode="&#x40e;" horiz-adv-x="1536" d="M20 1520h344l472 -924l336 924h320l-472 -1168q-72 -181 -175 -276.5t-269 -95.5q-162 0 -262 102.5t-106 261.5l244 60q3 -87 38 -131.5t98 -44.5q80 0 124 60zM372 1924l220 32q12 -68 56.5 -104t111.5 -36t111.5 36t56.5 104l220 -32q-15 -136 -118 -214t-270 -78 t-270 78t-118 214z" />
<glyph unicode="&#x410;" horiz-adv-x="1624" d="M24 0l600 1520h376l600 -1520h-328l-120 320h-688l-120 -320h-320zM564 588h488l-244 660z" />
<glyph unicode="&#x411;" horiz-adv-x="1516" d="M212 0v1520h1088v-268h-780v-320h356q255 0 401.5 -123.5t146.5 -336.5q0 -221 -146 -346.5t-402 -125.5h-664zM516 252h324q135 0 203.5 56t68.5 164q0 106 -69 161t-203 55h-324v-436z" />
<glyph unicode="&#x412;" horiz-adv-x="1532" d="M212 0v1520h700q227 0 357.5 -108.5t130.5 -295.5q0 -113 -51 -201t-145 -139q109 -51 166.5 -143t57.5 -217q0 -193 -134 -304.5t-370 -111.5h-712zM508 252h360q129 0 192.5 49t63.5 151q0 204 -256 204h-360v-404zM508 900h356q236 0 236 184t-236 184h-356v-368z" />
<glyph unicode="&#x413;" horiz-adv-x="1296" d="M212 0v1520h1036v-280h-728v-1240h-308z" />
<glyph unicode="&#x414;" horiz-adv-x="1724" d="M56 280h168q36 186 36 564v676h1212v-1240h184v-600h-300v320h-1000v-320h-300v600zM520 276h648v968h-608v-400q0 -308 -40 -568z" />
<glyph unicode="&#x415;" horiz-adv-x="1392" d="M212 0v1520h1080v-272h-776v-336h596v-264h-596v-376h796v-272h-1100z" />
<glyph unicode="&#x416;" horiz-adv-x="2372" d="M32 0l580 920l-572 600h384l608 -664v664h308v-668l612 668h380l-572 -600l580 -920h-364l-432 704l-204 -208v-496h-308v496l-204 208l-432 -704h-364z" />
<glyph unicode="&#x417;" horiz-adv-x="1408" d="M60 360l256 132q48 -115 151.5 -179.5t240.5 -64.5q148 0 230 56t82 160q0 90 -71 141t-197 51h-204v244h204q99 0 159.5 45t60.5 127q0 94 -70.5 149t-197.5 55q-129 0 -222.5 -63.5t-145.5 -180.5l-264 108q75 184 247 292t393 108q257 0 410.5 -118t153.5 -314 q0 -113 -54 -196t-154 -132q124 -42 190 -131t66 -217q0 -204 -168.5 -328t-447.5 -124q-226 0 -399 102.5t-249 277.5z" />
<glyph unicode="&#x418;" horiz-adv-x="1736" d="M212 0v1520h304v-1044l708 1044h300v-1520h-300v1052l-716 -1052h-296z" />
<glyph unicode="&#x419;" horiz-adv-x="1736" d="M212 0v1520h304v-1044l708 1044h300v-1520h-300v1052l-716 -1052h-296zM480 1924l220 32q12 -68 56.5 -104t111.5 -36t111.5 36t56.5 104l220 -32q-15 -136 -118 -214t-270 -78t-270 78t-118 214z" />
<glyph unicode="&#x41a;" horiz-adv-x="1612" d="M212 0v1520h308v-676l648 676h384l-604 -604l636 -916h-368l-484 700l-212 -212v-488h-308z" />
<glyph unicode="&#x41b;" horiz-adv-x="1708" d="M72 0v284h80q27 0 42.5 1.5t34.5 9t28.5 21.5t20.5 40t16 63t10 93t6.5 127.5t1.5 168.5v712h1184v-1520h-308v1240h-572v-456q0 -181 -9.5 -304.5t-34 -222t-67.5 -154t-107.5 -83.5t-157.5 -28q-80 0 -168 8z" />
<glyph unicode="&#x41c;" horiz-adv-x="2192" d="M212 0v1520h460l424 -1152l428 1152h452v-1520h-300v1132l-420 -1132h-320l-424 1144v-1144h-300z" />
<glyph unicode="&#x41d;" horiz-adv-x="1720" d="M212 0v1520h308v-600h680v600h308v-1520h-308v640h-680v-640h-308z" />
<glyph unicode="&#x41e;" horiz-adv-x="1696" d="M104 760q0 172 54 317.5t151 247t236 158.5t303 57q339 0 543.5 -213t204.5 -567q0 -172 -55 -317.5t-152.5 -247t-236.5 -158.5t-304 -57q-336 0 -540 213t-204 567zM416 760q0 -233 118 -372.5t314 -139.5t314 139.5t118 372.5t-118 372.5t-314 139.5t-314 -139.5 t-118 -372.5z" />
<glyph unicode="&#x41f;" horiz-adv-x="1720" d="M212 0v1520h1296v-1520h-308v1240h-680v-1240h-308z" />
<glyph unicode="&#x420;" horiz-adv-x="1492" d="M212 0v1520h644q263 0 413.5 -128.5t150.5 -351.5q0 -225 -150 -352.5t-414 -127.5h-336v-560h-308zM520 808h300q141 0 214.5 56.5t73.5 167.5q0 228 -288 228h-300v-452z" />
<glyph unicode="&#x421;" horiz-adv-x="1556" d="M104 760q0 172 53.5 317.5t149 247t231.5 158.5t298 57q244 0 415 -116t237 -328l-288 -104q-45 143 -138.5 215.5t-229.5 72.5q-190 0 -303 -140.5t-113 -379.5q0 -240 112 -380t304 -140q136 0 229.5 72.5t138.5 215.5l288 -104q-66 -208 -238 -326t-414 -118 q-331 0 -531.5 213.5t-200.5 566.5z" />
<glyph unicode="&#x422;" horiz-adv-x="1436" d="M40 1240v280h1356v-280h-524v-1240h-308v1240h-524z" />
<glyph unicode="&#x423;" horiz-adv-x="1536" d="M20 1520h344l472 -924l336 924h320l-472 -1168q-72 -181 -175 -276.5t-269 -95.5q-162 0 -262 102.5t-106 261.5l244 60q3 -87 38 -131.5t98 -44.5q80 0 124 60z" />
<glyph unicode="&#x424;" horiz-adv-x="2008" d="M92 780q0 270 181 433t495 163h84v168h308v-168h76q322 0 503 -159t181 -437q0 -271 -182 -433.5t-502 -162.5h-76v-208h-308v208h-84q-319 0 -497.5 159t-178.5 437zM400 780q0 -344 380 -344h72v688h-72q-183 0 -281.5 -89.5t-98.5 -254.5zM1160 436h72 q183 0 281.5 89.5t98.5 254.5q0 344 -380 344h-72v-688z" />
<glyph unicode="&#x425;" horiz-adv-x="1544" d="M32 0l560 780l-528 740h352l360 -512l364 512h340l-524 -736l556 -784h-352l-392 556l-384 -556h-352z" />
<glyph unicode="&#x426;" horiz-adv-x="1736" d="M212 0v1520h308v-1240h656v1240h308v-1240h180v-600h-296v320h-1156z" />
<glyph unicode="&#x427;" horiz-adv-x="1580" d="M124 1064v456h308v-428q0 -122 64 -179t200 -57h364v664h308v-1520h-308v584h-392q-265 0 -404.5 122t-139.5 358z" />
<glyph unicode="&#x428;" horiz-adv-x="2408" d="M212 0v1520h308v-1240h528v1240h308v-1240h532v1240h304v-1520h-1980z" />
<glyph unicode="&#x429;" horiz-adv-x="2448" d="M212 0v1520h308v-1240h528v1240h308v-1240h532v1240h304v-1240h184v-600h-300v320h-1864z" />
<glyph unicode="&#x42a;" horiz-adv-x="1728" d="M40 1244v276h700v-560h340q264 0 414 -127.5t150 -352.5q0 -223 -150.5 -351.5t-413.5 -128.5h-648v1244h-392zM740 260h316q276 0 276 228q0 111 -70.5 167.5t-205.5 56.5h-316v-452z" />
<glyph unicode="&#x42b;" horiz-adv-x="2172" d="M212 0v1520h308v-560h340q265 0 416.5 -127.5t151.5 -352.5q0 -222 -152 -351t-416 -129h-648zM520 260h316q280 0 280 228q0 111 -71 167.5t-209 56.5h-316v-452zM1652 0v1520h308v-1520h-308z" />
<glyph unicode="&#x42c;" horiz-adv-x="1508" d="M212 0v1520h308v-560h340q265 0 416.5 -127.5t151.5 -352.5q0 -222 -152 -351t-416 -129h-648zM520 260h316q280 0 280 228q0 111 -71 167.5t-209 56.5h-316v-452z" />
<glyph unicode="&#x42d;" horiz-adv-x="1548" d="M56 420l276 100q45 -135 141.5 -207.5t234.5 -72.5q174 0 285 110.5t135 305.5h-572v248h568q-30 180 -139 278t-277 98q-138 0 -234.5 -72.5t-141.5 -207.5l-276 100q75 207 250.5 323.5t409.5 116.5q330 0 529 -213t199 -567q0 -229 -91.5 -407t-257 -275.5 t-379.5 -97.5q-237 0 -412 118.5t-248 321.5z" />
<glyph unicode="&#x42e;" horiz-adv-x="2324" d="M212 0v1520h308v-600h280q45 284 234.5 452t469.5 168q216 0 378.5 -96t250 -273t87.5 -411q0 -230 -89 -407t-252 -275t-375 -98q-296 0 -485.5 178t-222.5 482h-276v-640h-308zM1100 760q0 -239 108.5 -379.5t291.5 -140.5q188 0 296 139.5t108 380.5t-108 380.5 t-296 139.5q-183 0 -291.5 -140.5t-108.5 -379.5z" />
<glyph unicode="&#x42f;" horiz-adv-x="1576" d="M64 0l372 608q-139 54 -213.5 166t-74.5 270q0 222 150 349t414 127h648v-1520h-308v560h-320l-328 -560h-340zM460 1036q0 -224 276 -224h316v448h-316q-137 0 -206.5 -57.5t-69.5 -166.5z" />
<glyph unicode="&#x430;" horiz-adv-x="1312" d="M76 332q0 63 17 116t44.5 90t70.5 67t85 48.5t98 33.5t100 22.5t101 14.5q44 6 73.5 10.5t61.5 11.5t52 15.5t37 20t24.5 27t7.5 35.5q0 64 -62.5 102t-169.5 38q-192 0 -340 -148l-172 180q216 204 528 204q227 0 355.5 -106.5t128.5 -293.5v-500q0 -72 72 -72h48v-248 q-40 -8 -104 -8q-111 0 -170 44t-74 140q-67 -91 -178 -143.5t-242 -52.5q-175 0 -283.5 97t-108.5 255zM356 356q0 -69 45.5 -108.5t126.5 -39.5q129 0 220.5 75.5t91.5 180.5v124q-51 -30 -216 -56q-134 -24 -180 -45q-88 -41 -88 -131z" />
<glyph unicode="&#x431;" horiz-adv-x="1372" d="M104 676q0 339 132 529.5t408 250.5l284 64q64 12 76 76l12 44l272 -48l-4 -44q-15 -115 -80 -182t-184 -98l-356 -72q-159 -33 -233 -110.5t-83 -221.5q63 96 174.5 148t257.5 52q231 0 377.5 -148.5t146.5 -379.5q0 -246 -166 -401t-430 -155q-282 0 -443 186t-161 510 zM404 540q0 -144 84.5 -232t219.5 -88q137 0 216.5 85.5t79.5 230.5q0 150 -79 235t-217 85q-141 0 -222.5 -84.5t-81.5 -231.5z" />
<glyph unicode="&#x432;" horiz-adv-x="1292" d="M172 0v1200h548q215 0 331.5 -78.5t116.5 -237.5q0 -96 -46 -165t-126 -103q99 -33 151.5 -106.5t52.5 -181.5q0 -158 -115 -243t-321 -85h-592zM444 220h292q83 0 129.5 38.5t46.5 105.5q0 69 -48.5 108.5t-135.5 39.5h-284v-292zM444 716h276q88 0 128 32t40 104 q0 63 -41 97.5t-119 34.5h-284v-268z" />
<glyph unicode="&#x433;" horiz-adv-x="1108" d="M172 0v1200h896v-268h-608v-932h-288z" />
<glyph unicode="&#x434;" horiz-adv-x="1488" d="M64 260h144q28 129 28 440v500h1024v-940h160v-540h-276v280h-804v-280h-276v540zM488 252h488v696h-460v-260q0 -274 -28 -436z" />
<glyph unicode="&#x435;" horiz-adv-x="1364" d="M88 600q0 277 166 448.5t438 171.5q267 0 427.5 -169t160.5 -451q0 -52 -12 -92h-892q21 -136 108.5 -212t227.5 -76q217 0 340 144l180 -172q-185 -212 -520 -212q-201 0 -343.5 81.5t-211.5 219.5t-69 319zM380 720h608q-24 129 -101.5 198.5t-194.5 69.5 q-125 0 -206.5 -70.5t-105.5 -197.5z" />
<glyph unicode="&#x436;" horiz-adv-x="1988" d="M20 0l468 724l-456 476h360l456 -508v508h288v-508l456 508h360l-452 -476l468 -724h-344l-336 532l-152 -160v-372h-288v380l-152 156l-336 -536h-340z" />
<glyph unicode="&#x437;" horiz-adv-x="1148" d="M28 288l228 116q93 -192 308 -192q105 0 168.5 41.5t63.5 110.5q0 66 -54 103t-150 37h-160v208h152q78 0 125 36.5t47 99.5q0 68 -51 104t-145 36q-190 0 -288 -172l-204 140q73 124 206 194t302 70q207 0 333.5 -96t126.5 -252q0 -172 -148 -252q94 -36 147 -109 t53 -171q0 -159 -148 -259.5t-380 -100.5q-188 0 -327.5 79.5t-204.5 228.5z" />
<glyph unicode="&#x438;" horiz-adv-x="1448" d="M172 0v1200h284v-792l528 792h288v-1200h-280v792l-532 -792h-288z" />
<glyph unicode="&#x439;" horiz-adv-x="1448" d="M172 0v1200h284v-792l528 792h288v-1200h-280v792l-532 -792h-288zM336 1604l220 32q12 -68 56.5 -104t111.5 -36t111.5 36t56.5 104l220 -32q-15 -136 -118 -214t-270 -78t-270 78t-118 214z" />
<glyph unicode="&#x43a;" horiz-adv-x="1344" d="M172 0v1200h288v-504l492 504h360l-488 -472l508 -728h-344l-364 528l-164 -156v-372h-288z" />
<glyph unicode="&#x43b;" horiz-adv-x="1416" d="M44 0v260h68q52 0 76 21.5t36 90.5t12 216v612h1004v-1200h-288v940h-432v-384q0 -215 -35.5 -337.5t-110.5 -174.5t-206 -52q-60 0 -124 8z" />
<glyph unicode="&#x43c;" horiz-adv-x="1832" d="M172 0v1200h432l316 -872l312 872h424v-1200h-276v880l-320 -880h-288l-320 880v-880h-280z" />
<glyph unicode="&#x43d;" d="M172 0v1200h288v-456h520v456h288v-1200h-288v480h-520v-480h-288z" />
<glyph unicode="&#x43e;" horiz-adv-x="1416" d="M88 600q0 278 171.5 449t448.5 171q282 0 451 -169t169 -451q0 -278 -171.5 -449t-448.5 -171q-282 0 -451 169t-169 451zM384 600q0 -177 87 -278.5t237 -101.5t237 101.5t87 278.5t-87 278.5t-237 101.5t-237 -101.5t-87 -278.5z" />
<glyph unicode="&#x43f;" d="M172 0v1200h1096v-1200h-288v940h-520v-940h-288z" />
<glyph unicode="&#x440;" horiz-adv-x="1448" d="M172 -400v1600h256l16 -180q69 97 172 148.5t228 51.5q234 0 375 -169t141 -451q0 -278 -143.5 -449t-372.5 -171q-243 0 -384 172v-552h-288zM448 600q0 -175 82.5 -277.5t225.5 -102.5q144 0 228 103t84 277t-84 277t-228 103q-143 0 -225.5 -102.5t-82.5 -277.5z" />
<glyph unicode="&#x441;" horiz-adv-x="1300" d="M88 600q0 278 169 449t443 171q203 0 350 -95.5t198 -264.5l-276 -84q-33 97 -104 150.5t-172 53.5q-144 0 -228 -103t-84 -277t84 -277t228 -103q100 0 171.5 53t108.5 151l272 -84q-51 -169 -198 -264.5t-350 -95.5q-274 0 -443 171t-169 449z" />
<glyph unicode="&#x442;" horiz-adv-x="1212" d="M40 940v260h1132v-260h-420v-940h-288v940h-424z" />
<glyph unicode="&#x443;" horiz-adv-x="1348" d="M28 1200h316l384 -948l296 948h300l-428 -1216q-68 -194 -180.5 -299t-267.5 -105q-80 0 -144.5 21t-106.5 55.5t-71 82.5t-42 99.5t-16 109.5l264 48q3 -79 31 -121.5t93 -42.5q73 0 132 100z" />
<glyph unicode="&#x444;" horiz-adv-x="2076" d="M88 600q0 276 132 446t348 170q208 0 328 -144v528h288v-532q118 148 324 148q219 0 349.5 -167t130.5 -449q0 -276 -132 -446t-348 -170q-204 0 -324 144v-528h-288v536q-122 -152 -328 -152q-219 0 -349.5 167t-130.5 449zM380 600q0 -174 72 -277t192 -103 q122 0 193 102.5t71 277.5t-71 277.5t-193 102.5q-120 0 -192 -103t-72 -277zM1168 600q0 -175 71.5 -277.5t196.5 -102.5q120 0 190 103t70 277t-70 277t-190 103q-125 0 -196.5 -102.5t-71.5 -277.5z" />
<glyph unicode="&#x445;" horiz-adv-x="1348" d="M44 0l444 608l-424 592h332l280 -396l288 396h320l-424 -592l444 -608h-340l-292 416l-292 -416h-336z" />
<glyph unicode="&#x446;" horiz-adv-x="1484" d="M172 0v1200h288v-940h508v940h288v-940h160v-540h-276v280h-968z" />
<glyph unicode="&#x447;" horiz-adv-x="1328" d="M100 868v332h288v-332q0 -97 49 -136.5t171 -39.5h260v508h288v-1200h-288v428h-260q-239 0 -373.5 117.5t-134.5 322.5z" />
<glyph unicode="&#x448;" horiz-adv-x="2016" d="M172 0v1200h288v-940h404v940h288v-940h404v940h288v-1200h-1672z" />
<glyph unicode="&#x449;" horiz-adv-x="2072" d="M172 0v1200h288v-940h404v940h288v-940h404v940h288v-940h160v-540h-276v280h-1556z" />
<glyph unicode="&#x44a;" horiz-adv-x="1460" d="M40 940v260h600v-424h300q210 0 331 -104t121 -284q0 -179 -122 -283.5t-330 -104.5h-588v940h-312zM640 228h260q97 0 148.5 42t51.5 122q0 78 -52 119t-148 41h-260v-324z" />
<glyph unicode="&#x44b;" horiz-adv-x="1852" d="M172 0v1200h288v-424h300q210 0 331 -104t121 -284q0 -179 -122 -283.5t-330 -104.5h-588zM460 228h260q97 0 148.5 42t51.5 122q0 78 -52 119t-148 41h-260v-324zM1388 0v1200h288v-1200h-288z" />
<glyph unicode="&#x44c;" horiz-adv-x="1280" d="M172 0v1200h288v-424h300q210 0 331 -104t121 -284q0 -179 -122 -283.5t-330 -104.5h-588zM460 228h260q97 0 148.5 42t51.5 122q0 78 -52 119t-148 41h-260v-324z" />
<glyph unicode="&#x44d;" horiz-adv-x="1296" d="M52 328l256 84q36 -94 110.5 -145t181.5 -51q128 0 213.5 79.5t106.5 212.5h-464v208h460q-27 124 -110.5 196t-205.5 72q-106 0 -181 -50t-115 -142l-252 80q60 162 207 255t345 93q270 0 437 -170.5t167 -449.5t-167 -449.5t-437 -170.5q-201 0 -348 93t-204 255z" />
<glyph unicode="&#x44e;" horiz-adv-x="1960" d="M172 0v1200h288v-456h228q42 220 198 348t386 128q273 0 436.5 -169t163.5 -451q0 -278 -166 -449t-434 -171q-242 0 -398.5 134t-189.5 366h-224v-480h-288zM964 600q0 -176 83 -278t225 -102q143 0 223.5 101t80.5 279t-80.5 279t-223.5 101q-142 0 -225 -102t-83 -278 z" />
<glyph unicode="&#x44f;" horiz-adv-x="1316" d="M40 0l304 464q-112 45 -172 133t-60 207q0 180 127.5 288t340.5 108h564v-1200h-284v424h-236l-264 -424h-320zM404 804q0 -78 54.5 -121t153.5 -43h248v328h-248q-98 0 -153 -44t-55 -120z" />
<glyph unicode="&#x451;" horiz-adv-x="1364" d="M88 600q0 277 166 448.5t438 171.5q267 0 427.5 -169t160.5 -451q0 -52 -12 -92h-892q21 -136 108.5 -212t227.5 -76q217 0 340 144l180 -172q-185 -212 -520 -212q-201 0 -343.5 81.5t-211.5 219.5t-69 319zM308 1360v256h300v-256h-300zM380 720h608 q-24 129 -101.5 198.5t-194.5 69.5q-125 0 -206.5 -70.5t-105.5 -197.5zM752 1360v256h300v-256h-300z" />
<glyph unicode="&#x454;" horiz-adv-x="1304" d="M88 600q0 278 169 449t443 171q202 0 348.5 -92t203.5 -256l-260 -88q-40 94 -116.5 147t-179.5 53q-121 0 -203 -71.5t-109 -196.5h456v-208h-460q21 -136 104.5 -214t211.5 -78q103 0 179.5 53t116.5 147l260 -88q-57 -164 -203.5 -256t-348.5 -92q-274 0 -443 171 t-169 449z" />
<glyph unicode="&#x456;" horiz-adv-x="676" d="M180 1360v256h312v-256h-312zM192 0v1200h288v-1200h-288z" />
<glyph unicode="&#x457;" horiz-adv-x="676" d="M-36 1360v256h300v-256h-300zM192 0v1200h288v-1200h-288zM408 1360v256h300v-256h-300z" />
<glyph unicode="&#x45e;" horiz-adv-x="1348" d="M28 1200h316l384 -948l296 948h300l-428 -1216q-68 -194 -180.5 -299t-267.5 -105q-80 0 -144.5 21t-106.5 55.5t-71 82.5t-42 99.5t-16 109.5l264 48q3 -79 31 -121.5t93 -42.5q73 0 132 100zM288 1604l220 32q12 -68 56.5 -104t111.5 -36t111.5 36t56.5 104l220 -32 q-15 -136 -118 -214t-270 -78t-270 78t-118 214z" />
<glyph unicode="&#x490;" horiz-adv-x="1296" d="M212 0v1520h736v320h300v-600h-728v-1240h-308z" />
<glyph unicode="&#x491;" horiz-adv-x="1108" d="M172 0v1200h620v320h276v-588h-608v-932h-288z" />
<glyph unicode="&#x2000;" horiz-adv-x="978" />
<glyph unicode="&#x2001;" horiz-adv-x="1956" />
<glyph unicode="&#x2002;" horiz-adv-x="978" />
<glyph unicode="&#x2003;" horiz-adv-x="1956" />
<glyph unicode="&#x2004;" horiz-adv-x="652" />
<glyph unicode="&#x2005;" horiz-adv-x="489" />
<glyph unicode="&#x2006;" horiz-adv-x="326" />
<glyph unicode="&#x2007;" horiz-adv-x="326" />
<glyph unicode="&#x2008;" horiz-adv-x="244" />
<glyph unicode="&#x2009;" horiz-adv-x="391" />
<glyph unicode="&#x200a;" horiz-adv-x="108" />
<glyph unicode="&#x2010;" horiz-adv-x="996" d="M140 544v272h716v-272h-716z" />
<glyph unicode="&#x2011;" horiz-adv-x="996" d="M140 544v272h716v-272h-716z" />
<glyph unicode="&#x2012;" horiz-adv-x="996" d="M140 544v272h716v-272h-716z" />
<glyph unicode="&#x2013;" horiz-adv-x="1316" d="M140 544v272h1036v-272h-1036z" />
<glyph unicode="&#x2014;" horiz-adv-x="1796" d="M140 544v272h1516v-272h-1516z" />
<glyph unicode="&#x2018;" horiz-adv-x="664" d="M148 952v296q0 175 78.5 263.5t217.5 88.5h52v-160h-36q-68 0 -98.5 -31.5t-33.5 -104.5h168v-352h-348z" />
<glyph unicode="&#x2019;" horiz-adv-x="664" d="M168 872v160h36q69 0 101 32t35 104h-172v352h352v-296q0 -175 -80 -263.5t-220 -88.5h-52z" />
<glyph unicode="&#x201a;" horiz-adv-x="688" d="M168 0v352h352v-300q0 -174 -80 -261t-220 -87h-52v156h36q68 0 100.5 33.5t35.5 106.5h-172z" />
<glyph unicode="&#x201c;" horiz-adv-x="1176" d="M148 952v296q0 175 78.5 263.5t217.5 88.5h52v-160h-36q-68 0 -98.5 -31.5t-33.5 -104.5h168v-352h-348zM656 952v296q0 175 80 263.5t220 88.5h52v-160h-36q-69 0 -101 -32t-35 -104h172v-352h-352z" />
<glyph unicode="&#x201d;" horiz-adv-x="1176" d="M168 872v160h36q69 0 101 32t35 104h-172v352h352v-296q0 -175 -80 -263.5t-220 -88.5h-52zM680 872v160h36q68 0 98.5 31.5t33.5 104.5h-168v352h348v-296q0 -175 -78.5 -263.5t-217.5 -88.5h-52z" />
<glyph unicode="&#x201e;" horiz-adv-x="1200" d="M168 0v352h352v-300q0 -174 -80 -261t-220 -87h-52v156h36q68 0 100.5 33.5t35.5 106.5h-172zM680 0v352h348v-300q0 -175 -78 -261.5t-218 -86.5h-52v156h36q68 0 98.5 33.5t33.5 106.5h-168z" />
<glyph unicode="&#x2022;" horiz-adv-x="1512" d="M412 680q0 147 98.5 245.5t245.5 98.5t245.5 -98.5t98.5 -245.5t-98.5 -245.5t-245.5 -98.5t-245.5 98.5t-98.5 245.5z" />
<glyph unicode="&#x2026;" horiz-adv-x="1880" d="M168 0v352h352v-352h-352zM764 0v352h352v-352h-352zM1360 0v352h348v-352h-348z" />
<glyph unicode="&#x202f;" horiz-adv-x="391" />
<glyph unicode="&#x2039;" horiz-adv-x="780" d="M120 540v280l500 340v-300l-256 -176l256 -180v-304z" />
<glyph unicode="&#x203a;" horiz-adv-x="780" d="M160 200v300l256 176l-256 180v304l500 -340v-280z" />
<glyph unicode="&#x205f;" horiz-adv-x="489" />
<glyph unicode="&#x20ac;" d="M40 516v168h148q-4 24 -4 76t4 76h-148v168h168q54 251 213 393.5t391 142.5q190 0 328 -93t208 -263l-268 -120q-34 108 -105 172t-167 64q-113 0 -192 -77t-112 -219h388v-168h-412q-4 -24 -4 -76t4 -76h412v-168h-388q33 -142 112 -219t192 -77q96 0 167 64t105 172 l268 -120q-70 -170 -208 -263t-328 -93q-232 0 -391 142.5t-213 393.5h-168z" />
<glyph unicode="&#x20bd;" horiz-adv-x="1452" d="M68 296v168h220v152h-220v168h220v736h544q246 0 387 -121t141 -331q0 -212 -140.5 -332t-387.5 -120h-240v-152h544v-168h-544v-296h-304v296h-220zM592 784h160q147 0 223.5 59.5t76.5 176.5q0 232 -300 232h-160v-468z" />
<glyph unicode="&#x2122;" horiz-adv-x="2048" d="M72 1332v188h712v-188h-252v-572h-208v572h-252zM892 760v760h296l192 -520l192 520h296v-760h-204v524l-188 -524h-196l-184 516v-516h-204z" />
<glyph unicode="&#x25fc;" horiz-adv-x="1200" d="M0 0v1200h1200v-1200h-1200z" />
</font>
</defs>
</svg>
